1 сезон

3 сезон

iTunes

1

Line

MVO

iTunes

13

1 сезон

RePack

30

Deluxe

pack

Лицензия

ВАЖНО

ИГРА 18+

pack

RePack

MK11

RePack

jed

RePack

fifa19

RePack

RDR2

RePack

NEED FOR SPEED™ PAYBACK

4 сезон

9 сезон

Бесстыжие 9 сезон

Все сериалы

все сериалы на PB.wtf

RePack

FAR CRY 5

Anonymous, доброй ночи, мы катастрофически не успеваем собрать деньги на оплату серверов, помогите нам пожалуйста 5,10,15р., для нас важна любая помощь . В качестве благодарности мы отключим Вам всю рекламу на сайте (укажите свой ник в строку Ваше имя)!

×
  
Magnet ссылка

Игра Джеральда / Gerald's Game (Майк Флэнеган) [2017, ужасы, триллер, WEBRip от R.G. Resident] MVO [FocusStudio] pb.wtf

Игра Джеральда через торрент pb.wtf

Размер: 1.46 GB | Добавлен: 3 года 9 мес. назад | Торрент скачан:798 раз
Скачать  

14-10-2017 13:54 Игра Джеральда Скачать торрент  

Игра Джеральда / Gerald's Game

Год выпуска: 2017
Страна: США
Жанр: ужасы, триллер

Продолжительность: 01:43:24
Перевод: Профессиональный многоголосый [FocusStudio]
Примечание: Релиз без рекламы. Присутствует ненормативная лексика.
Режиссер: Майк Флэнеган
В ролях:

Карла Гуджино (Jessie Burlingame), Брюс Гринвуд (Gerald Burlingame), Генри Томас (Tom), Карел Стрёйкен (Moonlight Man), Кейт Сигел (Sally), Кьяра Аурелия (Young Jessie), Натали Роерс (Reporter #1), Гвендолин Муламба (Judge McGarnagle), Джон Артур (Mobile Police Officer), Tom Glynn (DOC Prisoner), Кимберли Баттиста (Prosecutor), Stu Cookson (Defense)
Описание:
После того, как ее муж падает с сердечным приступом в разгаре интимной игры, молодая женщина остается прикованной к кровати. Но ее одиночество будет недолгим. Все страхи, которые она когда-либо испытывала в жизни, вернутся в одночасье в уединенный дом, мгновенно превратившийся в зловещую камеру пыток.
Рейтинг:

Качество: WEBRip
Формат: AVI
Видео: XviD, 720x304 (2.35:1), 1819 kbps, 23,976 fps, 0,347 bpp
Аудио: AC3 / 2.0 / 48 kHz / 192 kbps /

General
Complete name : E:\Geralds.Game.2017.WEBRip.R.G.Resident.avi
Format : AVI
Format/Info : Audio Video Interleave
File size : 1.46 GiB
Duration : 1 h 43 min
Overall bit rate : 2 021 kb/s
Writing application : VirtualDubModRus 1.5.10.2 (build 2542/release)
Writing library : VirtualDubMod build 2542/release

Video
ID : 0
Format : MPEG-4 Visual
Format profile : Advanced Simple@L5
Format settings, BVOP : 2
Format settings, QPel : No
Format settings, GMC : No warppoints
Format settings, Matrix : Custom
Codec ID : XVID
Codec ID/Hint : XviD
Duration : 1 h 43 min
Bit rate : 1 820 kb/s
Width : 720 pixels
Height : 304 pixels
Display aspect ratio : 2.35:1
Frame rate : 23.976 (24000/1001) FPS
Color space : YUV
Chroma subsampling : 4:2:0
Bit depth : 8 bits
Scan type : Progressive
Compression mode : Lossy
Bits/(Pixel*Frame) : 0.347
Stream size : 1.31 GiB (90%)
Writing library : XviD 73

Audio
ID : 1
Format : AC-3
Format/Info : Audio Coding 3
Mode extension : CM (complete main)
Format settings, Endianness : Big
Codec ID : 2000
Duration : 1 h 43 min
Bit rate mode : Constant
Bit rate : 192 kb/s
Channel(s) : 2 channels
Channel positions : Front: L R
Sampling rate : 48.0 kHz
Frame rate : 31.250 FPS (1536 spf)
Compression mode : Lossy
Stream size : 142 MiB (9%)
Alignment : Split accross interleaves
Interleave, duration : 42 ms (1.00 video frame)
Interleave, preload duration : 500 ms
pb.wtf



Скачать Игра Джеральда через торрент http://i77.fastpic.ru/big/2016/0417/a7/808a646271c761f7c7d87df3d366b3a7.png Скачать фильм Игра Джеральда через торрент бесплантно в хорошем качестве Описание: После того, как ее муж падает с сердечным приступом в разгаре интимной игры, молодая женщина остается прикованной к кровати. Но ... 9.4 10 14
Info! Золотая раздача, скачанное не засчитывается.
Торрент: Зарегистрирован [2017-10-14 13:54] · скачан: 798 раз
Статус: √ проверено
Размер: 1.46 GB
Как cкачать? Как скачать Игра Джеральда через торрент | UTorrent

28-11-2019 20:33  

Отключить всю рекламу на сайте

14-10-2017 16:13 Игра Джеральда Скачать торрент  

Вот это киношка))))Давненько ТАКОГО не было.То ли треш,то ли психодел.... Режиссёр однозначно красава!))))))pb.wtf



14-10-2017 17:11 Игра Джеральда Скачать торрент  

досмотрел до конца.... ....ОДНОЗНАЧНО))))))pb.wtf



16-10-2017 20:11 Игра Джеральда Скачать торрент  

весьма смотрибельно. Рекомендовано к просмотру.pb.wtf



03-11-2017 16:33 Игра Джеральда Скачать торрент  

Первые 10 минут просмотра в голове всё стояла одна лишь мысль (вопрос), что за шляпу я смотрю? Но продолжая смотреть данную картину, начал проникать в неё с интересом и, стоял уже вопрос другой - что же будет дальше? В общем и короче говоря, передумал множество вариантов концовки фильма но так концовка, что представил нам режиссёр, затмила все мои варианты. Так вот кто ей подсказывал всё это время как выбраться? )
К "ужасам" я бы этот фильм конечно не отнёс, скорее это психологический триллер. Мне фильм очень даже понравился, но к сожалению второй раз смотреть его уже будет не интересно.pb.wtf



18-11-2017 12:20 Игра Джеральда Скачать торрент  

makson писал(а):

Вот это киношка))))Давненько ТАКОГО не было.То ли треш,то ли психодел.... Режиссёр однозначно красава!))))))

Красава Снивен Кинг, по книге которого снят этот фильм! Режиссёру спасибо за то, что не запорол - Кинга экранизировать почти невозможно.pb.wtf



    Дорогой пользователь! Огромная просьба, поблагодарите релизера, оцените раздачу и оставьте свои комментарий, если Вы скачали Игра Джеральда через торрент бесплатно! Внесите свою лепту в развитие PiratBit!
    Комментировать посты могут только пользователи прошедшие не сложную регистрацию
    Показать сообщения:    

    Игра Джеральда через торрент
    Скачать бесплатно Игра Джеральда
    Игра Джеральда скачать торрент
    Игра Джеральда смотреть онлайн
    Cкачать фильм Игра Джеральда бесплатно
    Игра Джеральда скачать торрент в хорошем качестве
    Игра Джеральда смотреть онлайн бесплатно в хорошем качестве


    Вы не можете начинать темы
    Вы не можете отвечать на сообщения
    Вы не можете редактировать свои сообщения
    Вы не можете удалять свои сообщения
    Вы не можете голосовать в опросах
    Вы не можете прикреплять файлы к сообщениям
    Вы можете скачивать файлы