1 сезон

3 сезон

iTunes

1

iTunes

MVO

iTunes

13

1 сезон

RePack

30

Deluxe

pack

Лицензия

ВАЖНО

ИГРА 18+

pack

RePack

MK11

RePack

jed

RePack

fifa19

RePack

RDR2

RePack

NEED FOR SPEED™ PAYBACK

4 сезон

9 сезон

Бесстыжие 9 сезон

Все сериалы

все сериалы на PB.wtf

RePack

FAR CRY 5

Anonymous, добрый день, мы катастрофически не успеваем собрать деньги на оплату серверов, помогите нам пожалуйста 5,10,15р., для нас важна любая помощь . В качестве благодарности мы отключим Вам всю рекламу на сайте (укажите свой ник в строку Ваше имя)!

×
  
Magnet ссылка

Игра Джеральда / Gerald's Game (Майк Флэнеган) [2017, ужасы, триллер, WEBRip от R.G. Resident] MVO [FocusStudio] pb.wtf

Игра Джеральда через торрент pb.wtf

Размер: 741 MB | Добавлен: 3 года 9 мес. назад | Торрент скачан:139 раз
Скачать  

14-10-2017 16:07 Игра Джеральда Скачать торрент  

Игра Джеральда / Gerald's Game

Год выпуска: 2017
Страна: США
Жанр: ужасы, триллер

Продолжительность: 01:43:24
Перевод: Профессиональный многоголосый [FocusStudio]
Примечание: Релиз без рекламы. Присутствует ненормативная лексика.
Режиссер: Майк Флэнеган
В ролях:

Карла Гуджино (Jessie Burlingame), Брюс Гринвуд (Gerald Burlingame), Генри Томас (Tom), Карел Стрёйкен (Moonlight Man), Кейт Сигел (Sally), Кьяра Аурелия (Young Jessie), Натали Роерс (Reporter #1), Гвендолин Муламба (Judge McGarnagle), Джон Артур (Mobile Police Officer), Tom Glynn (DOC Prisoner), Кимберли Баттиста (Prosecutor), Stu Cookson (Defense)
Описание:
После того, как ее муж падает с сердечным приступом в разгаре интимной игры, молодая женщина остается прикованной к кровати. Но ее одиночество будет недолгим. Все страхи, которые она когда-либо испытывала в жизни, вернутся в одночасье в уединенный дом, мгновенно превратившийся в зловещую камеру пыток.
Рейтинг:

Качество: WEBRip
Формат: AVI
Видео: XviD, 688x288 (2.40:1), 867 kbps, 23,976 fps, 0,183 bpp
Аудио: MP3 / 2.0 / 48 kHz / 128 kbps /

General
Complete name : E:\Geralds.Game.2017.WEBRip.745.R.G.Resident.avi
Format : AVI
Format/Info : Audio Video Interleave
File size : 741 MiB
Duration : 1 h 43 min
Overall bit rate : 1 001 kb/s
Writing application : VirtualDubModRus 1.5.10.2 (build 2542/release)
Writing library : VirtualDubMod build 2542/release

Video
ID : 0
Format : MPEG-4 Visual
Format profile : Advanced Simple@L5
Format settings, BVOP : 2
Format settings, QPel : No
Format settings, GMC : No warppoints
Format settings, Matrix : Custom
Codec ID : XVID
Codec ID/Hint : XviD
Duration : 1 h 43 min
Bit rate : 867 kb/s
Width : 688 pixels
Height : 288 pixels
Display aspect ratio : 2.40:1
Frame rate : 23.976 (24000/1001) FPS
Color space : YUV
Chroma subsampling : 4:2:0
Bit depth : 8 bits
Scan type : Progressive
Compression mode : Lossy
Bits/(Pixel*Frame) : 0.183
Stream size : 642 MiB (87%)
Writing library : XviD 73

Audio
ID : 1
Format : MPEG Audio
Format version : Version 1
Format profile : Layer 3
Mode : Joint stereo
Mode extension : MS Stereo
Codec ID : 55
Codec ID/Hint : MP3
Duration : 1 h 43 min
Bit rate mode : Constant
Bit rate : 128 kb/s
Channel(s) : 2 channels
Sampling rate : 48.0 kHz
Compression mode : Lossy
Stream size : 94.7 MiB (13%)
Alignment : Aligned on interleaves
Interleave, duration : 167 ms (4.00 video frames)
Interleave, preload duration : 216 ms
Writing library : LAME3.99r
Encoding settings : -m j -V 4 -q 3 -lowpass 17 -b 128
pb.wtf



Скачать Игра Джеральда через торрент http://i77.fastpic.ru/big/2016/0417/a7/808a646271c761f7c7d87df3d366b3a7.png Скачать фильм Игра Джеральда через торрент бесплантно в хорошем качестве Описание: После того, как ее муж падает с сердечным приступом в разгаре интимной игры, молодая женщина остается прикованной к кровати. Но ... 9.8 10 5
Info! Золотая раздача, скачанное не засчитывается.
Торрент: Зарегистрирован [2017-10-14 16:07] · скачан: 139 раз
Статус: √ проверено
Размер: 741 MB
Как cкачать? Как скачать Игра Джеральда через торрент | UTorrent

28-11-2019 20:33  

Отключить всю рекламу на сайте

14-10-2017 16:14 Игра Джеральда Скачать торрент  

ха-ха-ха)))))фильм-ЗАЧЁТ!pb.wtf



14-10-2017 20:14 Игра Джеральда Скачать торрент  

фильм по Кингу)конечно зачетpb.wtf



    Дорогой пользователь! Огромная просьба, поблагодарите релизера, оцените раздачу и оставьте свои комментарий, если Вы скачали Игра Джеральда через торрент бесплатно! Внесите свою лепту в развитие PiratBit!
    Комментировать посты могут только пользователи прошедшие не сложную регистрацию
    Показать сообщения:    

    Игра Джеральда через торрент
    Скачать бесплатно Игра Джеральда
    Игра Джеральда скачать торрент
    Игра Джеральда смотреть онлайн
    Cкачать фильм Игра Джеральда бесплатно
    Игра Джеральда скачать торрент в хорошем качестве
    Игра Джеральда смотреть онлайн бесплатно в хорошем качестве


    Вы не можете начинать темы
    Вы не можете отвечать на сообщения
    Вы не можете редактировать свои сообщения
    Вы не можете удалять свои сообщения
    Вы не можете голосовать в опросах
    Вы не можете прикреплять файлы к сообщениям
    Вы можете скачивать файлы