Ссылка на приватное зеркало нашего сайта всего за 1$. Внимание количество ограничено!!!

2 сезон

iTunes

1 сезон

1

iTunes

iTunes

iTunes

1 сезон

RePack

30

ИГРА 18+

pack

ВАЖНО

!!Акция!!

Alien_RageХит недели

RePack

MK11
pack

Забери бонус

RePack

jed

!!Акция!!

Alien_Rage

RePack

fifa19

RePack

Assassins Creed: Odyssey

RePack

NEED FOR SPEED™ PAYBACK

4 сезон

9 сезон

Бесстыжие 9 сезон

Все сериалы

все сериалы на PB.wtf

RePack

FAR CRY 5
  

Команда Шарки / Sharky's Machine (Бёрт Рейнолдс) [1981 г., Боевик, триллер, драма, криминал, BDRip 720p] MVO, 2xAVO pb.wtf

Команда Шарки через торрент pb.wtf

Размер: 8.76 GB | Добавлен: 3 года назад | Торрент скачан:19 раз
Скачать  

14-10-2017 17:07 Команда Шарки Скачать торрент  

Команда Шарки / Sharky's Machine
Год выпуска: 1981
Страна: США
Жанр: Боевик, триллер, драма, криминал
Продолжительность: 02:01:49
Перевод: Профессиональный (многоголосый), авторский
Субтитры: Английские

Режиссер: Бёрт Рейнолдс

Бюджет: $35 610 100

rating

В ролях: Бёрт Рейнолдс, Витторио Гассман, Брайан Кит, Чарльз Дёрнинг, Эрл Холлиман, Берни Кейси, Генри Сильва, Ричард Либертини, Дэррил Хикман, Рэйчел Уорд, Джозеф Масколо, Кэрол Локателл, Хари Родс, Джон Фидлер, Джеймс О’Коннелл, Вэл Эйвери, Сьюзи Пэй, Тони Кинг, Дэн Иносанто, Уивер Леви

Описание: После провала агентурной «легенды» полицейского Шарки понижают в должности и переводят в полицию нравов. Но он при поддержке своих коллег пытается продолжать расследование особо опасных преступлений.

Качество: BDRip 720p
Формат: MKV
Видео кодек: x264
Аудио кодек: AC3, DTS
Видео: MPEG-4 AVC, 1280x720, 6886 kbps, 23.976 fps
Аудио#1: AC3, 192 kbps, 2.0 ch | Профессиональный многоголосый (Варус Видео)
Аудио#2: DTS, 1509 kbps, 5.1 ch | Aвторский (А.Кашкин)
Аудио#3: AC3, 192 kbps, 2.0 ch | Aвторский (Л. Володарский)
Аудио#4: DTS, 1509 kbps, 5.1 ch | Aнглийский
Релиз от: Koenig
скриншот   скриншот   скриншот   скриншот   скриншот   скриншот  

Общее
Уникальный идентификатор : 231131588454075473001112948651862436777 (0xADE253217D2472D7AB2E18B9E822ABA9)
Полное имя : Sharky's.Machine.1981.BDRip.720p.mkv
Формат : Matroska
Версия формата : Version 4 / Version 2
Размер файла : 8,76 Гбайт
Продолжительность : 2 ч. 1 м.
Общий поток : 10,3 Мбит/сек
Название фильма : Sharky's.Machine.1981.BDRip.720p by Koenig
Дата кодирования : UTC 2017-10-14 14:05:29
Программа кодирования : mkvmerge v12.0.0 ('Trust / Lust') 32bit
Библиотека кодирования : libebml v1.3.4 + libmatroska v1.4.5
Обложка : Yes
Attachments : cover.jpg

Видео
Идентификатор : 1
Формат : AVC
Формат/Информация : Advanced Video Codec
Профиль формата : High@L4.1
Параметр CABAC формата : Да
Параметр ReFrames формата : 8 кадров
Идентификатор кодека : V_MPEG4/ISO/AVC
Продолжительность : 2 ч. 1 м.
Битрейт : 6886 Кбит/сек
Ширина : 1280 пикселей
Высота : 720 пикселей
Соотношение сторон : 16:9
Режим частоты кадров : Постоянный
Частота кадров : 23,976 (24000/1001) кадра/сек
Цветовое пространство : YUV
Субдискретизация насыщенности : 4:2:0
Битовая глубина : 8 бит
Тип развёртки : Прогрессивная
Бит/(Пиксели*Кадры) : 0.312
Размер потока : 5,86 Гбайт (67%)
Заголовок : Sharky's.Machine.1981.BDRip.720p
Библиотека кодирования : x264 core 148 r2744 b97ae06
Настройки программы : cabac=1 / ref=8 / deblock=1:-3:-3 / analyse=0x3:0x133 / me=umh / subme=10 / psy=1 / psy_rd=1.05:0.15 / mixed_ref=1 / me_range=32 / chroma_me=1 / trellis=2 / 8x8dct=1 / cqm=0 / deadzone=21,11 / fast_pskip=0 / chroma_qp_offset=-3 / threads=3 / lookahead_threads=1 / sliced_threads=0 / nr=0 / decimate=1 / interlaced=0 / bluray_compat=0 / constrained_intra=0 / bframes=12 / b_pyramid=2 / b_adapt=2 / b_bias=0 / direct=3 / weightb=1 / open_gop=0 / weightp=2 / keyint=240 / keyint_min=23 / scenecut=40 / intra_refresh=0 / rc_lookahead=40 / rc=2pass / mbtree=1 / bitrate=6886 / ratetol=1.0 / qcomp=0.60 / qpmin=10 / qpmax=51 / qpstep=4 / cplxblur=20.0 / qblur=0.5 / vbv_maxrate=50000 / vbv_bufsize=62500 / nal_hrd=none / filler=0 / ip_ratio=1.40 / aq=1:1.00
Default : Да
Forced : Нет

Аудио #1
Идентификатор : 2
Формат : AC-3
Формат/Информация : Audio Coding 3
Параметр Endianness формата : Big
Идентификатор кодека : A_AC3
Продолжительность : 2 ч. 1 м.
Вид битрейта : Постоянный
Битрейт : 192 Кбит/сек
Каналы : 2 канала
Расположение каналов : Front: L R
Частота : 48,0 КГц
Частота кадров : 31,250 кадров/сек (1536 spf)
Битовая глубина : 16 бит
Метод сжатия : С потерями
Размер потока : 167 Мбайт (2%)
Заголовок : MVO - Варус Видео
Язык : Russian
ServiceKind/String : Complete Main
Default : Да
Forced : Нет

Аудио #2
Идентификатор : 3
Формат : DTS
Формат/Информация : Digital Theater Systems
Режим : 16
Параметр Endianness формата : Big
Идентификатор кодека : A_DTS
Продолжительность : 2 ч. 1 м.
Вид битрейта : Постоянный
Битрейт : 1509 Кбит/сек
Каналы : 6 каналов
Расположение каналов : Front: L C R, Side: L R, LFE
Частота : 48,0 КГц
Частота кадров : 93,750 кадра/сек (512 spf)
Битовая глубина : 24 бит
Метод сжатия : С потерями
Размер потока : 1,28 Гбайт (15%)
Заголовок : AVO - А.Кашкин
Язык : Russian
Default : Нет
Forced : Нет

Аудио #3
Идентификатор : 4
Формат : AC-3
Формат/Информация : Audio Coding 3
Параметр Endianness формата : Big
Идентификатор кодека : A_AC3
Продолжительность : 2 ч. 1 м.
Вид битрейта : Постоянный
Битрейт : 192 Кбит/сек
Каналы : 2 канала
Расположение каналов : Front: L R
Частота : 48,0 КГц
Частота кадров : 31,250 кадров/сек (1536 spf)
Битовая глубина : 16 бит
Метод сжатия : С потерями
Размер потока : 167 Мбайт (2%)
Заголовок : AVO - Л. Володарский
Язык : Russian
ServiceKind/String : Complete Main
Default : Нет
Forced : Нет

Аудио #4
Идентификатор : 5
Формат : DTS
Формат/Информация : Digital Theater Systems
Режим : 16
Параметр Endianness формата : Big
Идентификатор кодека : A_DTS
Продолжительность : 2 ч. 1 м.
Вид битрейта : Постоянный
Битрейт : 1509 Кбит/сек
Каналы : 6 каналов
Расположение каналов : Front: L C R, Side: L R, LFE
Частота : 48,0 КГц
Частота кадров : 93,750 кадра/сек (512 spf)
Битовая глубина : 24 бит
Метод сжатия : С потерями
Размер потока : 1,28 Гбайт (15%)
Заголовок : Original
Язык : English
Default : Нет
Forced : Нет

Текст
Идентификатор : 6
Формат : UTF-8
Идентификатор кодека : S_TEXT/UTF8
Идентификатор кодека/Информация : UTF-8 Plain Text
Продолжительность : 1 ч. 56 м.
Битрейт : 60 бит/сек
ElementCount : 1638
Размер потока : 51,6 Кбайт (0%)
Язык : English
Default : Да
Forced : Нет

pb.wtf



Скачать Команда Шарки через торрент http://pic1.kartinco.top/images/11/frro4.jpg Скачать фильм Команда Шарки через торрент бесплантно в хорошем качестве Описание: После провала агентурной «легенды» полицейского Шарки понижают в должности и переводят в полицию нравов. Но он при поддержке ... 9 10 3
Info! Золотая раздача, скачанное не засчитывается.
Торрент: Зарегистрирован [2017-10-14 17:07] · скачан: 19 раз
Статус: √ проверено
Размер: 8.76 GB
Как cкачать? Как скачать Команда Шарки через торрент | qTorrent

28-11-2019 20:33  

Отключить всю рекламу на сайте

    Дорогой пользователь! Огромная просьба, поблагодарите релизера, оцените раздачу и оставьте свои комментарий, если Вы скачали Команда Шарки через торрент бесплатно! Внесите свою лепту в развитие PiratBit!
    Комментировать посты могут только пользователи прошедшие не сложную регистрацию
    Показать сообщения:    

    Команда Шарки через торрент
    Скачать бесплатно Команда Шарки
    Команда Шарки скачать торрент
    Команда Шарки смотреть онлайн
    Cкачать фильм Команда Шарки бесплатно
    Команда Шарки скачать торрент в хорошем качестве
    Команда Шарки смотреть онлайн бесплатно в хорошем качестве


    Вы не можете начинать темы
    Вы не можете отвечать на сообщения
    Вы не можете редактировать свои сообщения
    Вы не можете удалять свои сообщения
    Вы не можете голосовать в опросах
    Вы не можете прикреплять файлы к сообщениям
    Вы можете скачивать файлы