Доктор Стрэндж

Лицензия

Добыча

MVO

Дом дракона

1 сезон

Тор

Лицензия

Мэверик

Лицензия

Там, где раки поют

MVO

Властелин колец

1 сезон

Ultimate

pack

Рекомендуем

30

Repack

ВАЖНО

ВАЖНО

Ghostwire

RePack

jed

RePack

nioh2

RePack

RDR2

RePack

NEED FOR SPEED™ PAYBACK

RePack

скачать торрент

Кинопоиск HD

Острые козырьки 6 сезон

6 сезон

FAR CRY 6

RePack

скачать торрент

Лицензия

скачать торрент

MVO

1

1 сезон

скачать торрент

1 сезон

скачать торрент

Лицензия

  

Тарзан. Легенда / The Legend of Tarzan (Дэвид Йейтс) [боевик, драма, мелодрама, приключения, BDRip 1080p от potroks] DUB + MVO

Тарзан. Легенда через торрент pb.wtf

Размер: 7.73 GB | Добавлен: 4 года 11 мес. назад | Торрент скачан:349 раз
Смотреть онлайн | Скачать   

14-10-2017 17:59 Тарзан. Легенда Скачать торрент  

Тарзан. Легенда / The Legend of Tarzan

Год выпуска: 2016
Страна: Великобритания, Канада, США
Жанр: боевик, драма, мелодрама, приключения
Продолжительность: 01:49:58
Перевод: Дубляж [Blu-ray CEE], Профессиональный многоголосый
Субтитры: русские (полные + форс.), английские (Full), английские (SDH)
Навигация по главам: есть

Режиссер: Дэвид Йейтс
В ролях:

Александр Скарсгард (John Clayton / Tarzan), Марго Робби (Jane Clayton), Сэмюэл Л. Джексон (George Washington Williams), Кристоф Вальц (Leon Rom), Джимон Хонсу (Chief Mbonga), Джим Бродбент (Prime Minister), Каспер Крамп (Major Kerckhover), Хэдли Фрайзер (Tarzan's Father), Женевьев О’Рейли (Tarzan's Mother), Саймон Расселл Бил (Mr. Frum), Рори Дж. Сапер (Young Tarzan (18 Years)), Кристиан Стивенс (Young Tarzan (5 Years))

Описание: Приспособившийся к жизни в Лондоне Тарзан возвращается в свой бывший дом, в джунгли, чтобы разобраться в том, что происходит в лагере горнодобывающей компании.



Качество: BDRip 1080p
Формат: MKV
Видео: AVC, 1920x800 (2.40:1), 8374 kbps, 23,976 fps, 0,227 bpp
Аудио №1: AC3 / 5.1 / 48 kHz / 448 kbps | DUB - Blu-ray CEE
Аудио №2: AC3 / 5.1 / 48 kHz / 640 kbps | MVO - FocusStudio
Аудио №3: AC3 / 5.1 / 48 kHz / 640 kbps | ENG
General
Unique ID : 244283665723634460391418344957482426440 (0xB7C7529AC67700E3BDFC83C89B8CE048)
Complete name : D:\Tarzan.Legenda.2016.2xRus.Eng.BDRip.1080p.-HELLYWOOD.mkv
Format : Matroska
Format version : Version 4 / Version 2
File size : 7.73 GiB
Duration : 1 h 49 min
Overall bit rate : 10.1 Mb/s
Movie name : The Legend of Tarzan (2016)
Encoded date : UTC 2017-10-14 04:37:02
Writing application : mkvmerge v5.9.0 ('On The Loose') built on Dec 15 2012 16:39:58
Writing library : libebml v1.3.0 + libmatroska v1.4.0

Video
ID : 1
Format : AVC
Format/Info : Advanced Video Codec
Format profile : [email protected]
Format settings, CABAC : Yes
Format settings, ReFrames : 5 frames
Codec ID : V_MPEG4/ISO/AVC
Duration : 1 h 49 min
Bit rate : 8 374 kb/s
Width : 1 920 pixels
Height : 800 pixels
Display aspect ratio : 2.40:1
Frame rate mode : Constant
Frame rate : 23.976 (24000/1001) FPS
Color space : YUV
Chroma subsampling : 4:2:0
Bit depth : 8 bits
Scan type : Progressive
Bits/(Pixel*Frame) : 0.227
Stream size : 6.25 GiB (81%)
Title : potroks
Writing library : x264 core 152 r2851M ba24899
Encoding settings : cabac=1 / ref=5 / deblock=1:-2:-2 / analyse=0x3:0x112 / me=umh / subme=11 / psy=1 / psy_rd=1.03:0.10 / mixed_ref=1 / me_range=48 / chroma_me=1 / trellis=2 / 8x8dct=1 / cqm=0 / deadzone=21,11 / fast_pskip=0 / chroma_qp_offset=-3 / threads=9 / lookahead_threads=2 / sliced_threads=0 / nr=0 / decimate=0 / interlaced=0 / bluray_compat=0 / constrained_intra=0 / bframes=12 / b_pyramid=2 / b_adapt=2 / b_bias=0 / direct=3 / weightb=1 / open_gop=0 / weightp=2 / keyint=240 / keyint_min=23 / scenecut=40 / intra_refresh=0 / rc_lookahead=0 / rc=2pass / mbtree=0 / bitrate=8374 / ratetol=1.0 / qcomp=0.70 / qpmin=0 / qpmax=69 / qpstep=4 / cplxblur=20.0 / qblur=0.5 / vbv_maxrate=50000 / vbv_bufsize=35714 / nal_hrd=none / filler=0 / ip_ratio=1.40 / pb_ratio=1.30 / aq=1:0.70
Language : English
Default : Yes
Forced : No

Audio #1
ID : 2
Format : AC-3
Format/Info : Audio Coding 3
Mode extension : CM (complete main)
Format settings, Endianness : Big
Codec ID : A_AC3
Duration : 1 h 49 min
Bit rate mode : Constant
Bit rate : 448 kb/s
Channel(s) : 6 channels
Channel positions : Front: L C R, Side: L R, LFE
Sampling rate : 48.0 kHz
Frame rate : 31.250 FPS (1536 spf)
Compression mode : Lossy
Stream size : 352 MiB (4%)
Title : Dub | DD 5.1 @ 448 kbps - Blu-ray CEE
Language : Russian
Default : Yes
Forced : No

Audio #2
ID : 3
Format : AC-3
Format/Info : Audio Coding 3
Mode extension : CM (complete main)
Format settings, Endianness : Big
Codec ID : A_AC3
Duration : 1 h 49 min
Bit rate mode : Constant
Bit rate : 640 kb/s
Channel(s) : 6 channels
Channel positions : Front: L C R, Side: L R, LFE
Sampling rate : 48.0 kHz
Frame rate : 31.250 FPS (1536 spf)
Compression mode : Lossy
Stream size : 503 MiB (6%)
Title : MVO | DD 5.1 @ 640 kbps - FocusStudio
Language : Russian
Default : No
Forced : No

Audio #3
ID : 4
Format : AC-3
Format/Info : Audio Coding 3
Mode extension : CM (complete main)
Format settings, Endianness : Big
Codec ID : A_AC3
Duration : 1 h 49 min
Bit rate mode : Constant
Bit rate : 640 kb/s
Channel(s) : 6 channels
Channel positions : Front: L C R, Side: L R, LFE
Sampling rate : 48.0 kHz
Frame rate : 31.250 FPS (1536 spf)
Compression mode : Lossy
Stream size : 503 MiB (6%)
Title : Original | DD 5.1 @ 640 kbps
Language : English
Default : No
Forced : No

Text #1
ID : 5
Format : UTF-8
Codec ID : S_TEXT/UTF8
Codec ID/Info : UTF-8 Plain Text
Title : Forced
Language : Russian
Default : Yes
Forced : No

Text #2
ID : 6
Format : UTF-8
Codec ID : S_TEXT/UTF8
Codec ID/Info : UTF-8 Plain Text
Title : iTunes
Language : Russian
Default : No
Forced : No

Text #3
ID : 7
Format : UTF-8
Codec ID : S_TEXT/UTF8
Codec ID/Info : UTF-8 Plain Text
Title : Full
Language : English
Default : No
Forced : No

Text #4
ID : 8
Format : UTF-8
Codec ID : S_TEXT/UTF8
Codec ID/Info : UTF-8 Plain Text
Title : SDH
Language : English
Default : No
Forced : No

Menu
00:00:00.000 : en:00:00:00.000
00:10:56.239 : en:00:10:56.239
00:20:47.204 : en:00:20:47.204
00:28:26.288 : en:00:28:26.288
00:40:49.197 : en:00:40:49.197
00:51:03.310 : en:00:51:03.310
01:01:15.297 : en:01:01:15.297
01:10:22.635 : en:01:10:22.635
01:20:58.145 : en:01:20:58.145
01:29:09.344 : en:01:29:09.344
01:42:06.495 : en:01:42:06.495



Скачать Тарзан. Легенда через торрент http://i6-imageban-ru.translate.goog/out/2017/10/14/59dee1b3c62c13c8e7fdf441012e0f10.png Скачать, смотреть онлайн Тарзан. Легенда бесплантно в хорошем качестве Описание: Приспособившийся к жизни в Лондоне Тарзан возвращается в свой бывший дом, в джунгли, чтобы разобраться в том, что происходит в ... 9 10 12
Info! Золотая раздача, скачанное не засчитывается.
Торрент: Зарегистрирован [2017-10-14 17:59] · скачан: 349 раз
Статус: √ проверено
Размер: 7.73 GB
Как cкачать? Как скачать Тарзан. Легенда через торрент | UTorrent

28-11-2019 20:33  


Отключить вcю реклaмy на сайте, в т.ч. и в плеере онлайн просмотра!

    Дорогой пользователь! Огромная просьба, поблагодарите релизера, оцените раздачу и оставьте свои комментарий, если Вы скачали Тарзан. Легенда через торрент бесплатно!!
    Комментировать посты могут только пользователи прошедшие не сложную регистрацию
    Показать сообщения:    


    Тарзан. Легенда через торрент
    Скачать бесплатно Тарзан. Легенда
    Тарзан. Легенда скачать торрент
    Тарзан. Легенда смотреть онлайн
    Cкачать фильм Тарзан. Легенда бесплатно
    Тарзан. Легенда скачать торрент в хорошем качестве
    Тарзан. Легенда смотреть онлайн бесплатно в хорошем качестве
    Вы не можете начинать темы
    Вы не можете отвечать на сообщения
    Вы не можете редактировать свои сообщения
    Вы не можете удалять свои сообщения
    Вы не можете голосовать в опросах
    Вы не можете прикреплять файлы к сообщениям
    Вы можете скачивать файлы