2 сезон

iTunes

1 сезон

1

iTunes

iTunes

iTunes

1 сезон

RePack

30

ИГРА 18+

pack

ВАЖНО

!!Акция!!

Alien_RageХит недели

RePack

MK11
pack

Забери бонус

RePack

jed

!!Акция!!

Alien_Rage

RePack

fifa19

RePack

Assassins Creed: Odyssey

RePack

NEED FOR SPEED™ PAYBACK

4 сезон

9 сезон

Бесстыжие 9 сезон

Все сериалы

все сериалы на PB.wtf

RePack

FAR CRY 5
  

Когда Гарри встретил Салли / When Harry Met Sally... (Роб Райнер) [1989, драма, мелодрама, комедия, BDRip 720p by msltel] 2 x MVO, AVO pb.wtf

Когда Гарри встретил Салли через торрент pb.wtf

Размер: 4.81 GB | Добавлен: 3 года назад | Торрент скачан:53 раза
Скачать  

15-10-2017 06:27 Когда Гарри встретил Салли Скачать торрент  

Название: Когда Гарри встретил Салли
Оригинальное название: When Harry Met Sally...
Год выпуска: 1989
Страна: США
Жанр: драма, мелодрама, комедия
Продолжительность: 01:35:31
Перевод: профессиональный многоголосый, авторский

Режиссер: Роб Райнер
В ролях: Билли Кристал, Мег Райан, Кэрри Фишер, Бруно Кёрби, Стивен Форд, Лиза Джейн Перски, Мишель Никастро, Гретхен Палмер, Роберт Алан Бойт, Дэвид Бёрдик, Джо Вивиани, Харли Джейн Козак, Джозеф Хант, Кевин Руни, Фрэнк Луз, Трэйси Рейнер, Кайл Т. Хеффнер, Кимберли Ламарк, Стэйси Кацин, Эстелл Райнер, Джон Эрсери, Питер Дэй, Куно Спонхольц, Конни Сойер, Чарльз Дуган, Кэтерин Сквайр, Аль Кристи, Фрэнсис Чейни, Берни Херн, Роуз Райт, Альдо Росси, Донна Харди, Питер Пан, Джейн Чунг

О фильме: Может ли секс разрушить идеальную дружбу между мужчиной и женщиной? Именно этот вопрос горячо обсуждают Гарри и Салли по дороге из Чикаго в Нью-Йорк. И через одиннадцать лет они никак не приблизятся к ответу на него. Поймут ли эти двое, что созданы друг для друга, или будут по-прежнему отрицать существование притяжения, которое родилось в ту самую секунду, когда Гарри встретил Салли?...



Качество: BDRip 720p
Формат: MKV
Видео: MPEG-4 AVC, 5926 Кбит/с, 1280x698, 23.976 кадр/с
Аудио 1: русский, AC3, 448 kbps, 6 ch, 48 kHz [профессиональный многоголосый, 20th century fox]
Аудио 2: русский, AC3, 192 kbps, 2 ch, 48 kHz [профессиональный многоголосый, Фортуна Фильм]
Аудио 3: русский, AC3, 192 kbps, 2 ch, 48 kHz [авторский, Алексей Михалёв]
Аудио 4: английский, AC3, 448 kbps, 6 ch, 48 kHz [оригинал]
Субтитры 1: русские
Субтитры 2: английские
Общее
Уникальный идентификатор : 172410855125961267137186747044693195038 (0x81B51F73E9DBF3CEA250A4DCCC2EB91E)
Полное имя : D:\Video\Когда Гарри встретил Салли.1989.BDRip.720p by msltel.mkv
Формат : Matroska
Версия формата : Version 4 / Version 2
Размер файла : 4,81 Гбайт
Продолжительность : 1 ч. 35 м.
Общий поток : 7209 Кбит/сек
Название фильма : Rip by msltel
Дата кодирования : UTC 2017-10-15 02:27:04
Программа кодирования : mkvmerge v8.2.0 ('World of Adventure') 64bit
Библиотека кодирования : libebml v1.3.1 + libmatroska v1.4.2

Видео
Идентификатор : 1
Формат : AVC
Формат/Информация : Advanced Video Codec
Профиль формата : High@L4.1
Параметр CABAC формата : Да
Параметр RefFrames формата : 9 кадров
Идентификатор кодека : V_MPEG4/ISO/AVC
Продолжительность : 1 ч. 35 м.
Битрейт : 5926 Кбит/сек
Ширина : 1280 пикселей
Высота : 698 пикселей
Соотношение сторон : 1,85:1
Режим частоты кадров : Постоянный
Частота кадров : 23,976 (24000/1001) кадра/сек
Цветовое пространство : YUV
Субдискретизация насыщенности : 4:2:0
Битовая глубина : 8 бит
Тип развёртки : Прогрессивная
Бит/(Пиксели*Кадры) : 0.277
Размер потока : 3,95 Гбайт (82%)
Библиотека кодирования : x264 core 146 r2538 121396c
Настройки программы : cabac=1 / ref=9 / deblock=1:-3:-2 / analyse=0x3:0x113 / me=umh / subme=11 / psy=1 / psy_rd=1.00:0.15 / mixed_ref=1 / me_range=32 / chroma_me=1 / trellis=2 / 8x8dct=1 / cqm=0 / deadzone=21,11 / fast_pskip=0 / chroma_qp_offset=-3 / threads=6 / lookahead_threads=1 / sliced_threads=0 / nr=0 / decimate=1 / interlaced=0 / bluray_compat=0 / constrained_intra=0 / bframes=7 / b_pyramid=2 / b_adapt=2 / b_bias=0 / direct=1 / weightb=1 / open_gop=0 / weightp=2 / keyint=230 / keyint_min=23 / scenecut=40 / intra_refresh=0 / rc_lookahead=40 / rc=crf / mbtree=0 / crf=19.9 / qcomp=0.60 / qpmin=0 / qpmax=69 / qpstep=4 / vbv_maxrate=62500 / vbv_bufsize=78125 / crf_max=0.0 / nal_hrd=none / filler=0 / ip_ratio=1.40 / pb_ratio=1.30 / aq=1:1.00
Язык : English
Default : Да
Forced : Нет

Аудио #1
Идентификатор : 2
Формат : AC-3
Формат/Информация : Audio Coding 3
Параметр Endianness формата : Big
Идентификатор кодека : A_AC3
Продолжительность : 1 ч. 35 м.
Вид битрейта : Постоянный
Битрейт : 448 Кбит/сек
Каналы : 6 каналов
Расположение каналов : Front: L C R, Side: L R, LFE
Частота : 48,0 КГц
Частота кадров : 31,250 кадров/сек (1536 SPF)
Битовая глубина : 16 бит
Метод сжатия : С потерями
Размер потока : 306 Мбайт (6%)
Заголовок : MVO.20th century fox
Язык : Russian
ServiceKind/String : Complete Main
Default : Да
Forced : Нет

Аудио #2
Идентификатор : 3
Формат : AC-3
Формат/Информация : Audio Coding 3
Параметр Endianness формата : Big
Идентификатор кодека : A_AC3
Продолжительность : 1 ч. 35 м.
Вид битрейта : Постоянный
Битрейт : 192 Кбит/сек
Каналы : 2 канала
Расположение каналов : Front: L R
Частота : 48,0 КГц
Частота кадров : 31,250 кадров/сек (1536 SPF)
Битовая глубина : 16 бит
Метод сжатия : С потерями
Размер потока : 131 Мбайт (3%)
Заголовок : MVO.Фортуна Фильм
Язык : Russian
ServiceKind/String : Complete Main
Default : Нет
Forced : Нет

Аудио #3
Идентификатор : 4
Формат : AC-3
Формат/Информация : Audio Coding 3
Параметр Endianness формата : Big
Идентификатор кодека : A_AC3
Продолжительность : 1 ч. 35 м.
Вид битрейта : Постоянный
Битрейт : 192 Кбит/сек
Каналы : 2 канала
Расположение каналов : Front: L R
Частота : 48,0 КГц
Частота кадров : 31,250 кадров/сек (1536 SPF)
Битовая глубина : 16 бит
Метод сжатия : С потерями
Размер потока : 131 Мбайт (3%)
Заголовок : Алексей Михалёв
Язык : Russian
ServiceKind/String : Complete Main
Default : Нет
Forced : Нет

Аудио #4
Идентификатор : 5
Формат : AC-3
Формат/Информация : Audio Coding 3
Параметр Endianness формата : Big
Идентификатор кодека : A_AC3
Продолжительность : 1 ч. 35 м.
Вид битрейта : Постоянный
Битрейт : 448 Кбит/сек
Каналы : 6 каналов
Расположение каналов : Front: L C R, Side: L R, LFE
Частота : 48,0 КГц
Частота кадров : 31,250 кадров/сек (1536 SPF)
Битовая глубина : 16 бит
Метод сжатия : С потерями
Размер потока : 306 Мбайт (6%)
Заголовок : original
Язык : English
ServiceKind/String : Complete Main
Default : Нет
Forced : Нет

Текст #1
Идентификатор : 6
Формат : UTF-8
Идентификатор кодека : S_TEXT/UTF8
Идентификатор кодека/Информация : UTF-8 Plain Text
Продолжительность : 1 ч. 35 м.
Битрейт : 117 бит/сек
ElementCount : 1372
Размер потока : 82,4 Кбайт (0%)
Заголовок : русские R5
Язык : Russian
Default : Нет
Forced : Нет

Текст #2
Идентификатор : 7
Формат : UTF-8
Идентификатор кодека : S_TEXT/UTF8
Идентификатор кодека/Информация : UTF-8 Plain Text
Продолжительность : 1 ч. 32 м.
Битрейт : 82 бит/сек
ElementCount : 1329
Размер потока : 56,3 Кбайт (0%)
Заголовок : английские
Язык : English
Default : Нет
Forced : Нет
pb.wtf



Скачать Когда Гарри встретил Салли через торрент http://s012.radikal.ru/i319/1710/d8/442a0ce3253c.jpg Скачать фильм Когда Гарри встретил Салли через торрент бесплантно в хорошем качестве О фильме: Может ли секс разрушить идеальную дружбу между мужчиной и женщиной? Именно этот вопрос горячо обсуждают Гарри и Салли по дороге ... 5 10 1
Info! Золотая раздача, скачанное не засчитывается.
Торрент: Зарегистрирован [2017-10-15 06:27] · скачан: 53 раз
Статус: √ проверено
Размер: 4.81 GB
Как cкачать? Как скачать Когда Гарри встретил Салли через торрент | qTorrent

% Раздел Тема Автор DL S | L
Фильмы [HD 720p, 1080p] (Хороший звук DUB, MVO) [ 12.77 GB ] Когда Гарри встретил Салли / When Harry Met Sally... [1989 BDRip 1080p by msltel] 2 x MVO AVO msltel Скачать
1 | 0

28-11-2019 20:33  

Отключить всю рекламу на сайте

    Дорогой пользователь! Огромная просьба, поблагодарите релизера, оцените раздачу и оставьте свои комментарий, если Вы скачали Когда Гарри встретил Салли через торрент бесплатно! Внесите свою лепту в развитие PiratBit!
    Комментировать посты могут только пользователи прошедшие не сложную регистрацию
    Показать сообщения:    

    Когда Гарри встретил Салли через торрент
    Скачать бесплатно Когда Гарри встретил Салли
    Когда Гарри встретил Салли скачать торрент
    Когда Гарри встретил Салли смотреть онлайн
    Cкачать фильм Когда Гарри встретил Салли бесплатно
    Когда Гарри встретил Салли скачать торрент в хорошем качестве
    Когда Гарри встретил Салли смотреть онлайн бесплатно в хорошем качестве


    Вы не можете начинать темы
    Вы не можете отвечать на сообщения
    Вы не можете редактировать свои сообщения
    Вы не можете удалять свои сообщения
    Вы не можете голосовать в опросах
    Вы не можете прикреплять файлы к сообщениям
    Вы можете скачивать файлы