Ссылка на приватное зеркало всего за 1$. Внимание количество ограничено!!!

iTunes

iTunes

iTunes

1

iTunes

iTunes

iTunes

WEBRip

iTunes

30
pack

$ от Little Big

ВАЖНО

!!Акция!!

Alien_RageХит недели

RePack

Resident Evil 21

ИГРА 18+

pack

RePack

jed

!!Акция!!

Alien_Rage

RePack

fifa19

RePack

Assassins Creed: Odyssey

RePack

NEED FOR SPEED™ PAYBACK

4 сезон

9 сезон

Бесстыжие 9 сезон

Все сериалы

все сериалы на PB.wtf

RePack

FAR CRY 5
  

Копейка (Иван Дыховичный) [2002, комедия, DVDRip] [Лицензия] pb.wtf

Копейка через торрент pb.wtf

Раздают: 1 [ 0 KB/s ]
Размер: 2.06 GB | Добавлен: 2 года 9 мес. назад | Торрент скачан:81 раз
Скачать  

15-10-2017 10:38 Копейка Скачать торрент  

Копейка
««Культовая машина в круговерти страстей»»

Год выпуска: 2002
Страна: Россия
Жанр: комедия

Продолжительность: 01:57:35
Перевод: Не требуется [Русский] (Лицензия)
Режиссер: Иван Дыховичный
В ролях:

Сергей Мазаев (Бубука / музыкант в ресторане), Андрей Краско (рассказчик, один из владелецев «копейки»), Ируте Венгалите (жена Николая), Юрий Цурило (Виктор / Дмитрий Иванович / игрок / грузин), Александра Куликова (жена Антона), Олег Ковалов (Антон Борисович), Сергей Шнуров (алкаш), Ольга Дыховичная (Таня / проститутка), Алёна Бабенко (Соня, девушка-катала на юге), Валерий Кудряшов, Роман Мадянов (работник ОВИРа / КГБ-шник / милиционер / редактор / алкаш), Владимир Сорокин (Иштван)
Описание:
Лихие приключения ВАЗ-2101, «Жигули» первой модели, легендарной «копейки», которая тридцать лет назад была настоящей «богиней» для миллионов советских людей. «Вечная и неразменная», покалеченная, измордованная и реанимированная «золотыми руками» мастера Бубуки, она путешествует от члена политбюро к проститутке, от черноморского каталы к простому гэбэшнику, от предприимчивого пенсионера к физику-диссиденту-лауреату Госпремии из новосибирского Академгородка.
Рейтинг:

Качество: DVDRip
Формат: AVI
Видео: XviD, 720x432 (5:3), 2014 kbps, 25 fps, 0,259 bpp
Аудио: AC3 / 5.1 / 48 kHz / 384 kbps / 16 bit
Релиз от:
General
Complete name : E:\Kopeika (2002).avi
Format : AVI
Format/Info : Audio Video Interleave
File size : 2.06 GiB
Duration : 1 h 57 min
Overall bit rate : 2 507 kb/s
Writing application : Lavf57.71.100
Comment : Rip by Basma4i

Video
ID : 0
Format : MPEG-4 Visual
Format profile : Advanced Simple@L5
Format settings, BVOP : No
Format settings, QPel : No
Format settings, GMC : No warppoints
Format settings, Matrix : Default (H.263)
Codec ID : XVID
Codec ID/Hint : XviD
Duration : 1 h 57 min
Bit rate : 2 014 kb/s
Width : 720 pixels
Height : 432 pixels
Display aspect ratio : 5:3
Frame rate : 25.000 FPS
Color space : YUV
Chroma subsampling : 4:2:0
Bit depth : 8 bits
Scan type : Progressive
Compression mode : Lossy
Bits/(Pixel*Frame) : 0.259
Stream size : 1.65 GiB (80%)
Title : Rus
Writing library : XviD 67

Audio
ID : 1
Format : AC-3
Format/Info : Audio Coding 3
Mode extension : CM (complete main)
Format settings, Endianness : Big
Codec ID : 2000
Duration : 1 h 57 min
Bit rate mode : Constant
Bit rate : 384 kb/s
Channel(s) : 6 channels
Channel positions : Front: L C R, Side: L R, LFE
Sampling rate : 48.0 kHz
Frame rate : 31.250 FPS (1536 spf)
Bit depth : 16 bits
Compression mode : Lossy
Stream size : 323 MiB (15%)
Alignment : Aligned on interleaves
Title : Rus
pb.wtf



Скачать Копейка через торрент http://i5.imageban.ru/out/2017/10/15/fc7eccdeba9f37e11122106227c2c514.png Скачать фильм Копейка через торрент бесплантно в хорошем качестве Описание: Лихие приключения ВАЗ-2101, «Жигули» первой модели, легендарной «копейки», которая тридцать лет назад была настоящей «богиней» ... 10 10 2
Торрент: Зарегистрирован [2017-10-15 10:38] · скачан: 81 раз
Статус: √ проверено
Размер: 2.06 GB
Как cкачать? Как скачать Копейка через торрент | qTorrent

28-11-2019 20:33  

Отключить всю рекламу на сайте

    Дорогой пользователь! Огромная просьба, поблагодарите релизера, оцените раздачу и оставьте свои комментарий, если Вы скачали Копейка через торрент бесплатно! Внесите свою лепту в развитие PiratBit!
    Комментировать посты могут только пользователи прошедшие не сложную регистрацию
    Показать сообщения:    

    Копейка через торрент
    Скачать бесплатно Копейка
    Копейка скачать торрент
    Копейка смотреть онлайн
    Cкачать фильм Копейка бесплатно
    Копейка скачать торрент в хорошем качестве
    Копейка смотреть онлайн бесплатно в хорошем качестве


    Вы не можете начинать темы
    Вы не можете отвечать на сообщения
    Вы не можете редактировать свои сообщения
    Вы не можете удалять свои сообщения
    Вы не можете голосовать в опросах
    Вы не можете прикреплять файлы к сообщениям
    Вы можете скачивать файлы