новый адрес
Мега распродажа FORZA HORIZON 4 ULTIMATE+ВСЕ DLC+ОНЛАЙН всего за 499р. 349 руб. (супер цена). Внимание количество ограничено!!!

iTunes

1+1

iTunes

мы

iTunes

1

iTunes

Чернобыль

iTunes

Ральф против интернета

Лицензия

ПШазам

Лицензия

Оно 2

Лицензия

30
pack

ВАЖНО

!!Акция!!

Alien_RageХит недели

RePack

Resident Evil 21

ИГРА 18+

pack

RePack

jed

!!Акция!!

Alien_Rage

RePack

fifa19

RePack

Assassins Creed: Odyssey

RePack

NEED FOR SPEED™ PAYBACK

3 сезон

9 сезон

Бесстыжие 9 сезон

Все сериалы

все сериалы на PB.wtf

RePack

FAR CRY 5
Ребята, катастрофически не хватает 1900р. для оплаты серверов за Октябрь (всвязи с блокировками трафик упал в 3 раза), 1-2р., выручайте.
  

Память сердца (Татьяна Лиознова) [1958, СССР, военный, драма, DVDRip от AVP Studio] pb.wtf

Память сердца через торрент pb.wtf

Размер: 745 MB | Добавлен: 2 года 1 мес. назад | Торрент скачан:22 раза
Скачать  

15-10-2017 11:36 Память сердца Скачать торрент  

Память сердца
Страна: СССР
Производство: К/ст им. Горького

Жанр: военный, драма
Год выпуска: 1958
Продолжительность: 01:31:46

Перевод: Не требуется
Cубтитры: нет
Оригинальная аудиодорожка: русский

Режиссер: Татьяна Лиознова

В ролях:
Андрей Попов, Тамара Макарова, Слава Жилин, Владимир Селезнёв, Георгий Шаповалов, Ральф Паркер, Роберт Даглиш, Леонард Уинкотт, Клавдия Лепанова...
Об актёрах подробней

Описание:
В основе сюжета — воспоминания английского летчика Ральфа Чадвика (Андрей Попов), в 1944 году оказавшегося на территории Советского Союза. После того, как его бомбардировщик был сбит фашистами, тяжело раненого летчика подобрала русская учительница Екатерина Ивановна (Тамара Макарова) и ухаживала за больным, пряча его в подвале школы. У них был маленький друг — бесстрашный школьник Васюков. Когда Чадвик окреп, они втроем пошли к партизанам. Пробиваясь через немецкий заслон, герои вступили в бой — и женщина получила тяжелое ранение. Последние метры были невыносимо трудными, но все трое добрались до отряда. Чадвика вскоре переправили в Москву — и герои расстались навсегда...

Источник: DVD5 R5
Качество видео: DVDRip
Формат видео: AVI

Видео: 640x480 (4:3), 25 fps, XviD ~ 998 kbps avg, 0.130 bit/pixel
Аудио: 48 kHz, MP3 2.0, 128 kbps

Раздача от:
Общее
Полное имя : Pamyat.serdca.1958.DVDRip-745_[New-team]_by_AVP_Studio.avi
Формат : AVI
Формат/Информация : Audio Video Interleave
Размер файла : 745 Мбайт
Продолжительность : 1 ч. 31 м.
Общий поток : 1136 Кбит/сек
Программа кодирования : VirtualDubMod 1.5.10.3 | www.virtualdub-fr.org || (build 2550/release)
Библиотека кодирования : VirtualDubMod build 2550/release

Видео
Идентификатор : 0
Формат : MPEG-4 Visual
Профиль формата : Advanced Simple@L5
Параметр BVOP формата : 1
Параметр QPel формата : Нет
Параметр GMC формата : Без точки перехода
Параметр матрицы формата : Выборочная
Идентификатор кодека : XVID
Идентификатор кодека/Подсказка : XviD
Продолжительность : 1 ч. 31 м.
Битрейт : 998 Кбит/сек
Ширина : 640 пикселей
Высота : 480 пикселей
Соотношение сторон : 4:3
Частота кадров : 25,000 кадров/сек
Цветовое пространство : YUV
Субдискретизация насыщенности : 4:2:0
Битовая глубина : 8 бит
Тип развёртки : Прогрессивная
Метод сжатия : С потерями
Бит/(Пиксели*Кадры) : 0.130
Размер потока : 655 Мбайт (88%)
Библиотека кодирования : XviD 73

Аудио
Идентификатор : 1
Формат : MPEG Audio
Версия формата : Version 1
Профиль формата : Layer 3
Идентификатор кодека : 55
Идентификатор кодека/Подсказка : MP3
Продолжительность : 1 ч. 31 м.
Вид битрейта : Постоянный
Битрейт : 128 Кбит/сек
Каналы : 2 канала
Частота : 48,0 КГц
Метод сжатия : С потерями
Размер потока : 84,0 Мбайт (11%)
Выравнивание : Соединение по промежуткам
Продолжительность промежутка : 40 мс. (1,00 видеокадр)
Время предзагрузки промежутка : 504 мс.
Библиотека кодирования : LAME3.99r
Настройки программы : -m s -V 4 -q 2 -lowpass 17 -b 128
pb.wtf



Скачать Память сердца через торрент http://s019.radikal.ru/i640/1710/00/dda107ce1b3b.png Скачать фильм Память сердца через торрент бесплантно в хорошем качестве Описание:В основе сюжета — воспоминания английского летчика Ральфа Чадвика (Андрей Попов), в 1944 году оказавшегося на территории ... 5 10 1
Info! Золотая раздача, скачанное не засчитывается.
Торрент: Зарегистрирован [2017-10-15 11:36] · скачан: 22 раз
Статус: √ проверено
Размер: 745 MB
Как cкачать? Как скачать Память сердца через торрент | qTorrent

% Раздел Тема Автор DL S | L
Кино СССР [ 1.09 GB ] Память сердца [1958 СССР военный DVDRip-AVC от AVP Studio] AVP Studio Скачать
1 | 0
Кино СССР [ 1.09 GB ] Память сердца [1958 СССР военный DVDRip от AVP Studio] AVP Studio Скачать
1 | 0
Наши сериалы [ 2.48 GB ] Память сердца / Серия 1-4 из 4 [2014 SATRip] White Smoke Скачать
1 | 0


>> Регистрируемся здесь <<






Отзывы и комментарии о схеме читаем и пишем здесь: ---> Отзывы и комментарии о схеме

Новые благодарочки в телеграм довольных пользователей:
скриншот   скриншот   скриншот   скриншот   скриншот
    Дорогой пользователь! Огромная просьба, поблагодарите релизера, оцените раздачу и оставьте свои комментарий, если Вы скачали Память сердца через торрент бесплатно! Внесите свою лепту в развитие PiratBit!
    Комментировать посты могут только пользователи прошедшие не сложную регистрацию
    Показать сообщения:    

    Память сердца через торрент
    Скачать бесплатно Память сердца
    Память сердца скачать торрент
    Память сердца смотреть онлайн
    Cкачать фильм Память сердца бесплатно
    Память сердца скачать торрент в хорошем качестве
    Память сердца смотреть онлайн бесплатно в хорошем качестве


    Вы не можете начинать темы
    Вы не можете отвечать на сообщения
    Вы не можете редактировать свои сообщения
    Вы не можете удалять свои сообщения
    Вы не можете голосовать в опросах
    Вы не можете прикреплять файлы к сообщениям
    Вы можете скачивать файлы