Ссылка на приватное зеркало нашего сайта всего за 1$. Внимание количество ограничено!!!

2 сезон

iTunes

1 сезон

1

iTunes

iTunes

iTunes

1 сезон

RePack

30

ИГРА 18+

pack

ВАЖНО

!!Акция!!

Alien_RageХит недели

RePack

MK11
pack

Забери бонус

RePack

jed

!!Акция!!

Alien_Rage

RePack

fifa19

RePack

Assassins Creed: Odyssey

RePack

NEED FOR SPEED™ PAYBACK

4 сезон

9 сезон

Бесстыжие 9 сезон

Все сериалы

все сериалы на PB.wtf

RePack

FAR CRY 5
  

Можно мне тебя обнять? / Сезон: 1 / Серии 1-2 из 2 (Станислав Назиров) [2017 ,мелодрама, HDTV 1080p] Не требуется [Русский] .R.G.Generalfilm pb.wtf

Можно мне тебя обнять? через торрент pb.wtf

Размер: 9.08 GB | Добавлен: 3 года назад | Торрент скачан:60 раз
Скачать  

15-10-2017 22:54 Можно мне тебя обнять? Скачать торрент  

Можно мне тебя обнять?


Год выпуска: 2017
Страна: Россия
Жанр: мелодрама
Продолжительность: 01:30:20
Режиссер: Станислав Назиров
В ролях:

Екатерина Редникова (Лиза), Елена Цыплакова, Майя Горбань (Аня Анисимова), Евгений Шириков (Гера), Дмитрий Соломыкин, Михаил Сафронов
Описание:
Аня Анисимова - золотая медалистка, которая из-за предвзятости экзаменатора не поступает в университет. Мать Ани, Лиза, предлагает дочери развеяться и поехать к бабушке в небольшой городок у моря.

Качество: HDTV 1080p by
Формат: MKV
Видео кодек: AVC
Аудио кодек: AC3
Видео: AVC, 1920x1080 (16:9), 7050 kbps, 25 fps, 0,136 bpp
Аудио: AC3 / 2.0 / 48 kHz / 192 kbps /
General
Unique ID : 251125840628438359294050263055448224894 (0xBCED13DF668DA579AF1F59F79289347E)
Complete name : E:\Mozhno mne tebya obnyat.2017.HDTV.1080p.R.G.Generalfilm\Mozhno mne tebya obnyat.s01.e01.2017.HDTV 1080p.by.White Smoke.R.G.Generalfilm.mkv
Format : Matroska
Format version : Version 4 / Version 2
File size : 4.57 GiB
Duration : 1 h 30 min
Overall bit rate mode : Constant
Overall bit rate : 7 234 kb/s
Movie name : Mozhno mne tebya obnyat.s01.e01.2017.HDTV 1080p.by.White Smoke.R.G.Generalfilm.mkv
Encoded date : UTC 2017-10-15 21:38:50
Writing application : mkvmerge v6.8.0 ('Theme for Great Cities') 64bit built on Mar 2 2014 21:34:26
Writing library : libebml v1.3.0 + libmatroska v1.4.1

Video
ID : 1
Format : AVC
Format/Info : Advanced Video Codec
Format profile : High@L4.1
Format settings, CABAC : Yes
Format settings, ReFrames : 3 frames
Format settings, GOP : M=3, N=33
Codec ID : V_MPEG4/ISO/AVC
Duration : 1 h 30 min
Bit rate mode : Constant
Bit rate : 7 051 kb/s
Width : 1 920 pixels
Height : 1 080 pixels
Display aspect ratio : 16:9
Frame rate mode : Constant
Frame rate : 25.000 FPS
Standard : PAL
Color space : YUV
Chroma subsampling : 4:2:0
Bit depth : 8 bits
Scan type : Progressive
Bits/(Pixel*Frame) : 0.136
Stream size : 4.35 GiB (95%)
Default : Yes
Forced : No
Color range : Limited
Color primaries : BT.709
Transfer characteristics : BT.709
Matrix coefficients : BT.709

Audio
ID : 2
Format : AC-3
Format/Info : Audio Coding 3
Mode extension : CM (complete main)
Format settings, Endianness : Big
Codec ID : A_AC3
Duration : 1 h 30 min
Bit rate mode : Constant
Bit rate : 192 kb/s
Channel(s) : 2 channels
Channel positions : Front: L R
Sampling rate : 48.0 kHz
Frame rate : 31.250 FPS (1536 spf)
Compression mode : Lossy
Stream size : 124 MiB (3%)
Default : Yes
Forced : No
pb.wtf



Скачать Можно мне тебя обнять? через торрент http://i91.fastpic.ru/big/2017/1016/71/97e9fca71458f643881024f5f4a83f71.jpg Скачать фильм Можно мне тебя обнять? через торрент бесплантно в хорошем качестве Описание: Аня Анисимова - золотая медалистка, которая из-за предвзятости экзаменатора не поступает в университет. Мать Ани, Лиза, ... 10 10 1
Info! Золотая раздача, скачанное не засчитывается.
Торрент: Зарегистрирован [2017-10-15 22:54] · скачан: 60 раз
Статус: √ проверено
Размер: 9.08 GB
Как cкачать? Как скачать Можно мне тебя обнять? через торрент | qTorrent

28-11-2019 20:33  

Отключить всю рекламу на сайте

    Дорогой пользователь! Огромная просьба, поблагодарите релизера, оцените раздачу и оставьте свои комментарий, если Вы скачали Можно мне тебя обнять? через торрент бесплатно! Внесите свою лепту в развитие PiratBit!
    Комментировать посты могут только пользователи прошедшие не сложную регистрацию
    Показать сообщения:    

    Можно мне тебя обнять? через торрент
    Скачать бесплатно Можно мне тебя обнять?
    Можно мне тебя обнять? скачать торрент
    Можно мне тебя обнять? смотреть онлайн
    Cкачать фильм Можно мне тебя обнять? бесплатно
    Можно мне тебя обнять? скачать торрент в хорошем качестве
    Можно мне тебя обнять? смотреть онлайн бесплатно в хорошем качестве


    Вы не можете начинать темы
    Вы не можете отвечать на сообщения
    Вы не можете редактировать свои сообщения
    Вы не можете удалять свои сообщения
    Вы не можете голосовать в опросах
    Вы не можете прикреплять файлы к сообщениям
    Вы можете скачивать файлы