Ссылка на приватное зеркало нашего сайта всего за 1$. Внимание количество ограничено!!!

2 сезон

iTunes

1 сезон

1

iTunes

iTunes

iTunes

1 сезон

RePack

30

ИГРА 18+

pack

ВАЖНО

!!Акция!!

Alien_RageХит недели

RePack

MK11
pack

Забери бонус

RePack

jed

!!Акция!!

Alien_Rage

RePack

fifa19

RePack

Assassins Creed: Odyssey

RePack

NEED FOR SPEED™ PAYBACK

4 сезон

9 сезон

Бесстыжие 9 сезон

Все сериалы

все сериалы на PB.wtf

RePack

FAR CRY 5
  

Ивановы-Ивановы / Сезон: 1 / Серии 1-20 из 20 (Антон Федотов) [2017 г., комедия, WEB-DL 720p] pb.wtf

Ивановы-Ивановы через торрент pb.wtf

Размер: 11.08 GB | Добавлен: 2 года 11 мес. назад | Торрент скачан:1076 раз
Скачать  

16-10-2017 00:08 Ивановы-Ивановы Скачать торрент  

Ивановы-Ивановы
  • Год выпуска: 2017
  • Страна: Россия
  • Жанр: комедия
  • Продолжительность: ~ 00:25:00 (Серия)
  • Перевод: Не требуется
  • Режиссер: Антон Федотов

  • В ролях:
    Семён Трескунов, Сергей Бурунов, Михаил Трухин, Александра Флоринская, Анна Уколова, Юрий Ицков, Алексей Лукин



  • Герои — две российские семьи Ивановых. Они не знакомы друг с другом, у них разный достаток и круг интересов. Одни — бедны и провинциальны, вторые — более чем обеспеченны и высокомерны. Они были бы счастливы прожить жизнь, ничего не зная друг о друге, но в один прекрасный день выясняется, что много лет назад наследников этих семей перепутали в роддоме, и все эти годы сын бедняков обитал в шикарном особняке, а отпрыск богатых Ивановых ютился в малогабаритной квартире. Конечно, теперь все хотят получить обратно своих кровных наследников.
  • Качество: WEB-DL 720p
  • Формат: : MKV
  • Видео кодек: AVC
  • Аудио кодек: AC-3
  • Видео: 2904 Кбит/сек, 1280*720 (16:9), в 25,000 кадров/сек, AVC
  • Аудио №1: 192 Кбит/сек, 48,0 КГц, 16 бит, 2 канала, AC-3
  • Релиз от: Files-x
    Внимание! Раздача ведётся путём добавления новых серий; при каждом добавлении создаётся новый торрент. Чтобы начать докачку новой серии, пользователям необходимо сделать следующее:
    (1) остановить скачивание,
    (2) удалить старый торрент у себя из клиента (старые серии удалять не надо),
    (3) скачать новый торрент и запустить его у себя в клиенте вместо старого, при этом указать клиенту путь в старую папку куда и должно происходить скачивание новых серий.
    Ваш клиент при этом должен произвести хеширование (проверку) старой папки (если не производит сам - помогите ему сделать это), и будет докачивать только те серии которых у вас ещё нет. Старые серии при этом не удаляются, а продолжают раздаваться!
    Eсли вы уже удалили старые серии, то предотвратить повторную закачку старых серий можно, отжав галочку в соответствующих местах при запуске нового торрента. По возможности, желательно не удалять старые серии как можно дольше чтобы релизёр не столько продолжал раздавать старые серии, а смог сконцентрироваться на новых.
    Общее
    Уникальный идентификатор : 288168876893130315795944505606034114492 (0xD8CB4E9151A98EA2FA83F47DFC7347BC)
    Полное имя : F:\Ivanovy-Ivanovy.2017.WEB-DL.720.Files-x\05.Ivanovy-Ivanovy.2017.WEB-DL.720.Files-x.mkv
    Формат : Matroska
    Версия формата : Version 4 / Version 2
    Размер файла : 560 Мбайт
    Продолжительность : 24 м. 46 с.
    Общий поток : 3159 Кбит/сек
    Программа кодирования : Lavf56.25.101
    Библиотека кодирования : Lavf56.25.101

    Видео
    Идентификатор : 1
    Формат : AVC
    Формат/Информация : Advanced Video Codec
    Профиль формата : High@L3.1
    Параметр CABAC формата : Да
    Параметр RefFrames формата : 4 кадра
    Идентификатор кодека : V_MPEG4/ISO/AVC
    Продолжительность : 24 м. 46 с.
    Битрейт : 2904 Кбит/сек
    Ширина : 1280 пикселей
    Высота : 720 пикселей
    Соотношение сторон : 16:9
    Режим частоты кадров : Постоянный
    Частота кадров : 25,000 кадров/сек
    Цветовое пространство : YUV
    Субдискретизация насыщенности : 4:2:0
    Битовая глубина : 8 бит
    Тип развёртки : Прогрессивная
    Бит/(Пиксели*Кадры) : 0.126
    Размер потока : 515 Мбайт (92%)
    Default : Да
    Forced : Нет

    Аудио
    Идентификатор : 2
    Формат : AC-3
    Формат/Информация : Audio Coding 3
    Параметр Endianness формата : Big
    Идентификатор кодека : A_AC3
    Продолжительность : 24 м. 46 с.
    Вид битрейта : Постоянный
    Битрейт : 192 Кбит/сек
    Каналы : 2 канала
    Расположение каналов : Front: L R
    Частота : 48,0 КГц
    Частота кадров : 31,250 кадров/сек (1536 SPF)
    Битовая глубина : 16 бит
    Метод сжатия : С потерями
    Задержка видео : -160 мс.
    Размер потока : 34,0 Мбайт (6%)
    ServiceKind/String : Complete Main
    Default : Да
    Forced : Нет

    Скриншоты:
    скриншот   скриншот   скриншот   скриншот   скриншот   скриншот   скриншот  
    скриншот  

    Раздача ведётся путём добавления новых серий. Добавлена 19-20 серия (10.11.2017).Просьба перекачать торрент файл.

    pb.wtf



  • Скачать Ивановы-Ивановы через торрент http://pic1.kartinco.top/images/11/hnr2g.jpg Скачать фильм Ивановы-Ивановы через торрент бесплантно в хорошем качестве qw.png Герои — две российские семьи Ивановых. Они не знакомы друг с другом, у них разный достаток и круг интересов. Одни — бедны и ... 9.6 10 47
    Info! Золотая раздача, скачанное не засчитывается.
    Торрент: Зарегистрирован [2017-11-10 11:29] · скачан: 1 076 раз
    Статус: √ проверено
    Размер: 11.08 GB
    Как cкачать? Как скачать Ивановы-Ивановы через торрент | qTorrent

    % Раздел Тема Автор DL S | L
    Наши сериалы [ 6.13 GB ] Ивановы-Ивановы / Сезон: 4 / Серии: 1-21 из 21 [2019 SATRip] bober100 Скачать
    2 | 6
    Наши сериалы [ 18.68 GB ] Ивановы-Ивановы / Сезон: 4 / Серии: 1-21 из 21 [2019 WEB-DL 1080p] bober100 Скачать
    2 | 0
    Наши сериалы [ 7.18 GB ] Ивановы-Ивановы / Сезон: 4 / Серии: 1-21 из 21 [2019 WEB-DLRip] bober100 Скачать
    1 | 0
    Наши сериалы [ 11.51 GB ] Ивановы-Ивановы / Сезон: 4 / Серии: 1-21 из 21 [2019 WEB-DL 720p] bober100 Скачать
    1 | 1
    Наши сериалы [ 6.48 GB ] Ивановы-Ивановы / Сезон: 4 / Серии: 1-21 из 21 [2019 WEB-DLRip-AVC] bober100 Скачать
    1 | 0
    Наши сериалы [ 6.37 GB ] Ивановы-Ивановы / Сезон: 3 / Серии: 1-21 из 21 [2018 SATRip] bober100 Скачать
    1 | 0
    Наши сериалы [ 18.09 GB ] Ивановы-Ивановы / Сезоны: 1-3 / Серии: 1-61 из 61 [2017-2018 WEB-DLRip] bober100 Скачать
    1 | 0


    Последний раз редактировалось: GEKADOL (2018-03-19 03:10), всего редактировалось 10 раз(а)

    28-11-2019 20:33  

    Отключить всю рекламу на сайте

    18-10-2017 12:29 Ивановы-Ивановы Скачать торрент  

    Сцена с мотоциклом и спиртом меня просто разорвала
    10 из 10pb.wtf



    19-10-2017 17:50 Ивановы-Ивановы Скачать торрент  

    Классный, смешной, легкий, отдыхающий сериал!!!pb.wtf



    21-10-2017 02:11 Ивановы-Ивановы Скачать торрент  

    DEVI писал(а):

    Сцена с мотоциклом и спиртом меня просто разорвала
    10 из 10

    Трудно даже представить его состояние pb.wtf



    30-10-2017 13:30 Ивановы-Ивановы Скачать торрент  

    ХМ, 13-16 когда ждать?pb.wtf



      Дорогой пользователь! Огромная просьба, поблагодарите релизера, оцените раздачу и оставьте свои комментарий, если Вы скачали Ивановы-Ивановы через торрент бесплатно! Внесите свою лепту в развитие PiratBit!
      Комментировать посты могут только пользователи прошедшие не сложную регистрацию
      Показать сообщения:    

      Ивановы-Ивановы через торрент
      Скачать бесплатно Ивановы-Ивановы
      Ивановы-Ивановы скачать торрент
      Ивановы-Ивановы смотреть онлайн
      Cкачать фильм Ивановы-Ивановы бесплатно
      Ивановы-Ивановы скачать торрент в хорошем качестве
      Ивановы-Ивановы смотреть онлайн бесплатно в хорошем качестве


      Вы не можете начинать темы
      Вы не можете отвечать на сообщения
      Вы не можете редактировать свои сообщения
      Вы не можете удалять свои сообщения
      Вы не можете голосовать в опросах
      Вы не можете прикреплять файлы к сообщениям
      Вы можете скачивать файлы