Ссылка на приватное зеркало нашего сайта всего за 1$. Внимание количество ограничено!!!

2 сезон

iTunes

1 сезон

1

2 сезон

2 сезон

iTunes

1 сезон

RePack

30

Ultimate

ВАЖНО

ИГРА 18+

pack

RePack

MK11
pack

Забери бонус

RePack

jed

!!Акция!!

Alien_Rage

RePack

fifa19

RePack

Assassins Creed: Odyssey

RePack

NEED FOR SPEED™ PAYBACK

4 сезон

9 сезон

Бесстыжие 9 сезон

Все сериалы

все сериалы на PB.wtf

RePack

FAR CRY 5
  

Призрачные войны / Ghost Wars / Сезон: 1 / Серии 1-13 из 13 (Дэвид Фон Энкен, Саймон Бэрри, Матиас Хендл) [2017, Ужасы, фэнтези, драма, WEBRip 720p] MVO [Good People] pb.wtf

Призрачные войны через торрент pb.wtf

Размер: 19.35 GB | Добавлен: 2 года 10 мес. назад | Торрент скачан:10 раз
Скачать  

16-10-2017 18:57 Призрачные войны Скачать торрент  

Призрачные войны / Ghost Wars Год выпуска: 2017
Страна: США
Жанр: Ужасы, фэнтези, драма
Продолжительность: ~00:45:00
Перевод: Профессиональный (многоголосый закадровый) Студия Good People
Субтитры: английские

Режиссёр: Дэвид Фон Энкен, Саймон Бэрри, Матиас Хендл

В ролях: Сара Джайлс, Эллисон Джеймс, Соня Беннет, Марина Бенитез Лаззаротто, Филип Грэйнджер, Чэнс Хурстфилд, Эндрю Моксэм, Мэдди Филлипс, Зак Сантьяго, Кармел Амит и др.

Описание: События разворачиваются в захолустном городке на Аляске, наводнённом сверхъестественными силами. Главный герой — местный пария Роман Мерсер, вынужденный перебороть предубеждения горожан и справиться с собственными демонами, ведь только так он сможет взять под контроль давно подавляемые сверхспособности и спасти жителей от нашествия призраков.

Сэмпл



Качество: WEBRip 720p
Формат: MKV
Видео кодек: AVC
Аудио кодек: AC3, E-AC3
Видео: H264, 1280x534 (2.40:1), 23.976 fps, ~3804kbps, 0.235 bit/pixel
Аудио 1: Dolby AC3 48000Hz 5.1 640 Kbps Русский
Аудио 2: Dolby E-AC3 48000Hz 5.1 640 Kbps Оригинал
Внимание! Раздача ведётся путём добавления новых серий; при каждом добавлении создаётся новый торрент. Чтобы начать докачку новой серии, пользователям необходимо сделать следующее:
(1) остановить скачивание,
(2) удалить старый торрент у себя из клиента (старые серии удалять не надо),
(3) скачать новый торрент и запустить его у себя в клиенте вместо старого, при этом указать клиенту путь в старую папку куда и должно происходить скачивание новых серий.
Ваш клиент при этом должен произвести хеширование (проверку) старой папки (если не производит сам - помогите ему сделать это), и будет докачивать только те серии которых у вас ещё нет. Старые серии при этом не удаляются, а продолжают раздаваться!
Eсли вы уже удалили старые серии, то предотвратить повторную закачку старых серий можно, отжав галочку в соответствующих местах при запуске нового торрента. По возможности, желательно не удалять старые серии как можно дольше чтобы релизёр не столько продолжал раздавать старые серии, а смог сконцентрироваться на новых.
General
Unique ID                   : 230277305122384698437504253008086357396 (0xAD3DCBB5EE62A1E3AF83855E7DDCD594)
Complete name               : Ghost.Wars.S01E01.Deaths.Door.720p.AMZN.WEBRip.DDP5.1.x264-GoodPeople.mkv
Format                      : Matroska
Format version              : Version 2
File size                   : 1.57 GiB
Duration                    : 42mn 51s
Overall bit rate            : 5 237 Kbps
Encoded date                : UTC 2017-10-15 21:09:33
Writing application         : mkvmerge v5.4.0 ('Piper') built on Mar 10 2012 13:34:39
Writing library             : libebml v1.2.3 + libmatroska v1.3.0
DURATION                    : 00:41:33.558000000
NUMBER_OF_FRAMES            : 648
NUMBER_OF_BYTES             : 15900
_STATISTICS_WRITING_APP     : mkvmerge v10.0.0 ('To Drown In You') 64bit
_STATISTICS_WRITING_DATE_UT : 2017-10-06 09:54:53
_STATISTICS_TAGS            : BPS DURATION NUMBER_OF_FRAMES NUMBER_OF_BYTES

Video
ID                          : 1
Format                      : AVC
Format/Info                 : Advanced Video Codec
Format profile              : High@L4.1
Format settings, CABAC      : Yes
Format settings, ReFrames   : 12 frames
Codec ID                    : V_MPEG4/ISO/AVC
Duration                    : 42mn 51s
Bit rate                    : 3 853 Kbps
Width                       : 1 280 pixels
Height                      : 534 pixels
Display aspect ratio        : 2.40:1
Frame rate mode             : Constant
Frame rate                  : 23.976 fps
Color space                 : YUV
Chroma subsampling          : 4:2:0
Bit depth                   : 8 bits
Scan type                   : Progressive
Bits/(Pixel*Frame)          : 0.235
Stream size                 : 1.15 GiB (74%)
Writing library             : x264 core 148 r2638 7599210
Encoding settings           : cabac=1 / ref=12 / deblock=1:-3:-3 / analyse=0x3:0x133 / me=umh / subme=10 / psy=1 / psy_rd=1.00:0.00 / mixed_ref=1 / me_range=48 / chroma_me=1 / trellis=2 / 8x8dct=1 / cqm=0 / deadzone=21,11 / fast_pskip=0 / chroma_qp_offset=-2 / threads=12 / lookahead_threads=2 / sliced_threads=0 / nr=0 / decimate=0 / interlaced=0 / bluray_compat=0 / constrained_intra=0 / bframes=9 / b_pyramid=0 / b_adapt=2 / b_bias=0 / direct=3 / weightb=1 / open_gop=0 / weightp=2 / keyint=240 / keyint_min=23 / scenecut=40 / intra_refresh=0 / rc=crf / mbtree=0 / crf=17.0 / qcomp=0.60 / qpmin=10 / qpmax=51 / qpstep=4 / ip_ratio=1.40 / pb_ratio=1.30 / aq=3:0.70
Default                     : Yes
Forced                      : No

Audio #1
ID                          : 2
Format                      : AC-3
Format/Info                 : Audio Coding 3
Mode extension              : CM (complete main)
Format settings, Endianness : Big
Codec ID                    : A_AC3
Duration                    : 42mn 51s
Bit rate mode               : Constant
Bit rate                    : 640 Kbps
Channel(s)                  : 6 channels
Channel positions           : Front: L C R, Side: L R, LFE
Sampling rate               : 48.0 KHz
Compression mode            : Lossy
Stream size                 : 196 MiB (12%)
Language                    : Russian
Default                     : Yes
Forced                      : No

Audio #2
ID                          : 3
Format                      : E-AC-3
Format/Info                 : Audio Coding 3
Format settings, Endianness : Big
Codec ID                    : A_EAC3
Duration                    : 42mn 51s
Bit rate mode               : Constant
Bit rate                    : 640 Kbps
Channel(s)                  : 6 channels
Channel positions           : Front: L C R, Side: L R, LFE
Sampling rate               : 48.0 KHz
Compression mode            : Lossy
Stream size                 : 196 MiB (12%)
Language                    : English
Default                     : No
Forced                      : No

Text
ID                          : 4
Format                      : UTF-8
Codec ID                    : S_TEXT/UTF8
Codec ID/Info               : UTF-8 Plain Text
Language                    : English
Default                     : No
Forced                      : No
скриншот  скриншот  скриншот  
pb.wtf



Скачать Призрачные войны через торрент http://i95.fastpic.ru/big/2017/1016/2b/84218c5db44df9f7600e4f55abc2db2b.jpg Скачать фильм Призрачные войны через торрент бесплантно в хорошем качестве Описание: События разворачиваются в захолустном городке на Аляске, наводнённом сверхъестественными силами. Главный герой — местный пария ... 10 10 3
Info! Серебряная раздача, засчитывается только 50% скачанного.
Торрент: Зарегистрирован [2018-01-17 10:44] · скачан: 10 раз
Статус: √ проверено
Размер: 19.35 GB
Как cкачать? Как скачать Призрачные войны через торрент | qTorrent

% Раздел Тема Автор DL S | L
Зарубежные сериалы [ 38.37 GB ] Призрачные войны / Война с призраками / Ghost Wars / Сезон: 1 / Серии: 1-13 из 13 [2017 WEBRip 1080p] MVO [TVShows] bober100 Скачать
1 | 0
Зарубежные сериалы [ 5.42 GB ] Призрачные войны / Ghost Wars / Сезон: 1 / Серии 1-11 из 13 [2017 WEBRip] MVO [BaibaKo] GEKADOL Скачать
1 | 0
Зарубежные сериалы [ 17.82 GB ] Призрачные войны / Ghost Wars / Сезон: 1 / Серии 1-11 из 13 [2017 WEBRip 720p] MVO [BaibaKo] GEKADOL Скачать
1 | 0
Зарубежные сериалы [ 7.31 GB ] Призрачные войны / Ghost Wars / Сезон: 1 / Серии: 1-13 из 13 [2017 HDTVRip] DVO [SunshineStudio] bober100 Скачать
1 | 0


Последний раз редактировалось: killermax2013 (2018-01-17 10:44), всего редактировалось 1 раз

28-11-2019 20:33  

Отключить всю рекламу на сайте

23-10-2017 21:34 Призрачные войны Скачать торрент  

+2pb.wtf



17-01-2018 10:45 Призрачные войны Скачать торрент  

Добавлены все серииpb.wtf



    Дорогой пользователь! Огромная просьба, поблагодарите релизера, оцените раздачу и оставьте свои комментарий, если Вы скачали Призрачные войны через торрент бесплатно! Внесите свою лепту в развитие PiratBit!
    Комментировать посты могут только пользователи прошедшие не сложную регистрацию
    Показать сообщения:    

    Призрачные войны через торрент
    Скачать бесплатно Призрачные войны
    Призрачные войны скачать торрент
    Призрачные войны смотреть онлайн
    Cкачать фильм Призрачные войны бесплатно
    Призрачные войны скачать торрент в хорошем качестве
    Призрачные войны смотреть онлайн бесплатно в хорошем качестве


    Вы не можете начинать темы
    Вы не можете отвечать на сообщения
    Вы не можете редактировать свои сообщения
    Вы не можете удалять свои сообщения
    Вы не можете голосовать в опросах
    Вы не можете прикреплять файлы к сообщениям
    Вы можете скачивать файлы