Ссылка на приватное зеркало всего за 1$. Внимание количество ограничено!!!

iTunes

iTunes

iTunes

1

iTunes

iTunes

iTunes

iTunes

iTunes

30
pack

$ от Little Big

ВАЖНО

!!Акция!!

Alien_RageХит недели

RePack

Resident Evil 21

ИГРА 18+

pack

RePack

jed

!!Акция!!

Alien_Rage

RePack

fifa19

RePack

Assassins Creed: Odyssey

RePack

NEED FOR SPEED™ PAYBACK

4 сезон

9 сезон

Бесстыжие 9 сезон

Все сериалы

все сериалы на PB.wtf

RePack

FAR CRY 5
  

Овердрайв / Overdrive (Антонио Негрет) [2017, боевик, триллер, WEB-DL 1080p] DUB [iTunes] pb.wtf

Овердрайв через торрент pb.wtf

Размер: 3.7 GB | Добавлен: 2 года 8 мес. назад | Торрент скачан:1634 раза
Скачать  

17-10-2017 05:25 Овердрайв Скачать торрент  

Овердрайв / OverdriveГод выпуска: 2017
Страна: Франция, США
Жанр: боевик, триллер
Продолжительность: 01:29:32
Перевод: Дубляж iTunes
Субтитры: отсутствуют

Режиссер: Антонио Негрет

rating

В ролях:

Ана де Армас, Скотт Иствуд, Гайя Уайсс, Клеменс Шик, Фредди Торп, Симон Абкарян, Мусса Мааскри, Том Либ, Каарис, Фредерик Анскомбре

Описание:

Эндрю и Гаретт Фостеры — братья-авантюристы, промышляющие угоном самых редких и роскошных автомобилей. До сих пор им легко удавалось избегать неприятностей, но во время очередного дела они попадают под прицел жестокого криминального босса. Теперь обмен на свои жизни они должны украсть для него самый ценный автомобиль его злейшего врага.

Качество: WEB-DL 1080p
Формат: MKV
Видео кодек: H.264
Аудио кодек: AC3

Видео: 1920x1080 at 25.000 fps, MPEG-4 AVC, ~5027 kbps avg
Аудио#1: Russian: 48 kHz, AC3, 3/2 (L,C,R,l,r) + LFE ch, ~384.00 kbps avg
Аудио#2: Ukrainian: 48 kHz, AC3, 3/2 (L,C,R,l,r) + LFE ch, ~384.00 kbps avg
скриншот   скриншот   скриншот   скриншот   скриншот  

General
Unique ID : 217766304990765682621842481075178232388 (0xA3D443C7B4D701489AE24B4E70D0DA44)
Complete name : Overdrive.2017.WEB-DL.1080p.Rus.Ukr.mkv
Format : Matroska
Format version : Version 4 / Version 2
File size : 3.70 GiB
Duration : 1 h 29 min
Overall bit rate : 5 912 kb/s
Movie name : OVERDRIVE_WEB_DL_1080p-BLUEBIRD
Encoded date : UTC 2017-10-16 18:48:28
Writing application : mkvmerge v6.9.1 ('Blue Panther') 32bit built on Apr 18 2014 18:15:44
Writing library : libebml v1.3.0 + libmatroska v1.4.1

Video
ID : 1
Format : AVC
Format/Info : Advanced Video Codec
Format profile : High@L4
Format settings : CABAC / 4 Ref Frames
Format settings, CABAC : Yes
Format settings, RefFrames : 4 frames
Codec ID : V_MPEG4/ISO/AVC
Duration : 1 h 29 min
Bit rate : 5 027 kb/s
Width : 1 920 pixels
Height : 1 080 pixels
Display aspect ratio : 16:9
Frame rate mode : Constant
Frame rate : 25.000 FPS
Color space : YUV
Chroma subsampling : 4:2:0
Bit depth : 8 bits
Scan type : Progressive
Bits/(Pixel*Frame) : 0.097
Stream size : 3.14 GiB (85%)
Title : OVERDRIVE_WEB_DL_1080p-BLUEBIRD
Language : English
Default : Yes
Forced : No
Color range : Limited
Color primaries : BT.709
Transfer characteristics : BT.709
Matrix coefficients : BT.709

Audio #1
ID : 2
Format : AC-3
Format/Info : Audio Coding 3
Format settings, Endianness : Big
Codec ID : A_AC3
Duration : 1 h 29 min
Bit rate mode : Constant
Bit rate : 384 kb/s
Channel(s) : 6 channels
Channel positions : Front: L C R, Side: L R, LFE
Sampling rate : 48.0 kHz
Frame rate : 31.250 FPS (1536 SPF)
Bit depth : 16 bits
Compression mode : Lossy
Stream size : 246 MiB (6%)
Title : [DUB] DD 5.1 @ 384 kbps (iTunes)
Language : Russian
Service kind : Complete Main
Default : Yes
Forced : No

Audio #2
ID : 3
Format : AC-3
Format/Info : Audio Coding 3
Format settings, Endianness : Big
Codec ID : A_AC3
Duration : 1 h 29 min
Bit rate mode : Constant
Bit rate : 384 kb/s
Channel(s) : 6 channels
Channel positions : Front: L C R, Side: L R, LFE
Sampling rate : 48.0 kHz
Frame rate : 31.250 FPS (1536 SPF)
Bit depth : 16 bits
Compression mode : Lossy
Stream size : 246 MiB (6%)
Title : [DUB] DD 5.1 @ 384 kbps (iTunes)
Language : Ukrainian
Service kind : Complete Main
Default : No
Forced : No

Menu
00:00:00.000 : en:Глава 1
00:06:17.600 : en:Глава 2
00:11:40.560 : en:Глава 3
00:18:33.440 : en:Глава 4
00:26:09.400 : en:Глава 5
00:30:07.680 : en:Глава 6
00:36:50.280 : en:Глава 7
00:43:05.840 : en:Глава 8
00:50:01.960 : en:Глава 9
00:56:45.800 : en:Глава 10
01:01:52.320 : en:Глава 11
01:07:21.720 : en:Глава 12
01:16:01.519 : en:Глава 13
01:22:00.719 : en:Глава 14

pb.wtf



Скачать Овердрайв через торрент http://s019.radikal.ru/i612/1710/80/c2bd24793fd8.jpg Скачать фильм Овердрайв через торрент бесплантно в хорошем качестве Описание: Эндрю и Гаретт Фостеры — братья-авантюристы, промышляющие угоном самых редких и роскошных автомобилей. До сих пор им легко ... 9.6 10 39
Info! Золотая раздача, скачанное не засчитывается.
Торрент: Зарегистрирован [2017-10-17 05:25] · скачан: 1 634 раз
Статус: √ проверено
Размер: 3.7 GB
Как cкачать? Как скачать Овердрайв через торрент | qTorrent

% Раздел Тема Автор DL S | L
Фильмы 2017 [DVDrip, WEB-DLRip, HDrip] (DUB, MVO) [ 1.7 GB ] Овердрайв / Overdrive [2017 BDRip] DUB [ R5] bober100 Скачать
1 | 0
Фильмы 2017 [DVDrip, WEB-DLRip, HDrip] (DUB, MVO) [ 1.46 GB ] Овердрайв / Overdrive [2017 BDRip] - [] Twi7ter Скачать
1 | 0
T Релизы по Парсеру [Игры, Сериалы и Фильмы и другое...] [ 4.65 GB ] Овердрайв / Overdrive [2017 BDRip 720p] bober100 Скачать
2 | 0
Фильмы без перевода [ 3.2 GB ] Овердрайв / Overdrive [2017 WEB-DL 1080p] [ENG] killermax2013 Скачать
1 | 0

28-11-2019 20:33  

Отключить всю рекламу на сайте

17-10-2017 18:22 Овердрайв Скачать торрент  

Угнать за 60 секунд??? Кто смотрел?pb.wtf



22-10-2017 17:13 Овердрайв Скачать торрент  

KostyaNikolin писал(а):

Угнать за 60 секунд??? Кто смотрел?

Это просто высер, какой-то а не фильм. (((( Логика отсутствует напрочь. Снято какими-то дэбилами. Видно, для таких же дэбилов. Время, потрачено зря.pb.wtf



27-10-2017 09:45 Овердрайв Скачать торрент  

Бред сивой кобылы. Досмотрел с трудом.pb.wtf



24-11-2017 12:23 Овердрайв Скачать торрент  

А мне понравилось .. pb.wtf



10-12-2017 08:49 Овердрайв Скачать торрент  

Спасибо за фильм. pb.wtf



20-12-2017 06:19 Овердрайв Скачать торрент  

Стрёмное кинцо!....нудный и тоскливыйpb.wtf



    Дорогой пользователь! Огромная просьба, поблагодарите релизера, оцените раздачу и оставьте свои комментарий, если Вы скачали Овердрайв через торрент бесплатно! Внесите свою лепту в развитие PiratBit!
    Комментировать посты могут только пользователи прошедшие не сложную регистрацию
    Показать сообщения:    

    Овердрайв через торрент
    Скачать бесплатно Овердрайв
    Овердрайв скачать торрент
    Овердрайв смотреть онлайн
    Cкачать фильм Овердрайв бесплатно
    Овердрайв скачать торрент в хорошем качестве
    Овердрайв смотреть онлайн бесплатно в хорошем качестве


    Вы не можете начинать темы
    Вы не можете отвечать на сообщения
    Вы не можете редактировать свои сообщения
    Вы не можете удалять свои сообщения
    Вы не можете голосовать в опросах
    Вы не можете прикреплять файлы к сообщениям
    Вы можете скачивать файлы