Ссылка на приватное зеркало всего за 1$. Внимание количество ограничено!!!

OK

1+1

iTunes

мы

OK

1

WEB-DLRip

Джокер

Пифагор

Ведьмак / The Witcher сериал

Лицензия

ПШазам

ОК

Оно 2

iTunes

30
pack

Вам бонус

ВАЖНО

!!Акция!!

Alien_RageХит недели

RePack

Resident Evil 21

ИГРА 18+

pack

RePack

jed

!!Акция!!

Alien_Rage

RePack

fifa19

RePack

Assassins Creed: Odyssey

RePack

NEED FOR SPEED™ PAYBACK

4 сезон

9 сезон

Бесстыжие 9 сезон

Все сериалы

все сериалы на PB.wtf

RePack

FAR CRY 5
  

Планета обезьян: Война / War for the Planet of the Apes (Мэтт Ривз ) [2017, фантастика, боевик, триллер, BDRip 720p от potroks] Dub [Лицензия] pb.wtf

Планета обезьян: Война через торрент pb.wtf

Размер: 5.76 GB | Добавлен: 2 года 3 мес. назад | Торрент скачан:618 раз
Скачать  

17-10-2017 08:07 Планета обезьян: Война Скачать торрент  

Планета обезьян: Война / War for the Planet of the Apes

Год выпуска: 2017
Страна: США, Канада, Новая Зеландия / Chernin Entertainment, Невафильм
Жанр: фантастика, боевик, триллер, драма, приключения
Продолжительность: 02:20:09
Перевод: Дубляж [Blu-ray EUR]
Субтитры: русские (полные + форс.), английские (Full + SDH + SDH-Colored)
Навигация по главам: есть

Режиссер: Мэтт Ривз
В ролях:

Энди Серкис (Caesar), Вуди Харрельсон (The Colonel), Стив Зан (Bad Ape), Карин Коновал (Maurice), Амайя Миллер (Nova), Терри Нотари (Rocket), Тай Олссон (Red Donkey), Майкл Адамуэйт (Luca), Тоби Кеббелл (Koba), Гэбриел Чаварриа (Preacher), Джуди Грир (Cornelia), Сара Каннинг (Lake)

Описание: Армию генетически модифицированных обезьян ожидает новый вызов: они вынуждены вступить в смертельную схватку с армией людей под руководством безжалостного полковника. После невообразимых потерь среди своих воинов вождь обезьян Цезарь начинает личную борьбу с темными инстинктами и собирается отомстить за весь свой вид. В конце концов он и полковник должны будут сойтись в эпической битве, которая решит, кто теперь будет править на Земле - люди или обезьяны.



Качество: BDRip 720p
Формат: MKV
Видео: AVC, 1280x534 (2.40:1), 4989 kbps, 23,976 fps
Аудио №1: AC3 / 5.1 / 48 kHz / 448 kbps | RUS
Аудио №2: AC3 / 5.1 / 48 kHz / 448 kbps | ENG
General
Unique ID : 254289472309874095628037254065152204417 (0xBF4E5EF5085BD2DCB734B45FE8861E81)
Complete name : D:\Planeta.Obezyan.Voyna.2017.DUAL.BDRip.720p.-HELLYWOOD.mkv
Format : Matroska
Format version : Version 4 / Version 2
File size : 5.76 GiB
Duration : 2 h 20 min
Overall bit rate : 5 883 kb/s
Movie name : War for the Planet of the Apes (2017)
Encoded date : UTC 2017-10-17 07:45:01
Writing application : mkvmerge v5.9.0 ('On The Loose') built on Dec 15 2012 16:39:58
Writing library : libebml v1.3.0 + libmatroska v1.4.0

Video
ID : 1
Format : AVC
Format/Info : Advanced Video Codec
Format profile : High@L4.1
Format settings, CABAC : Yes
Format settings, ReFrames : 9 frames
Codec ID : V_MPEG4/ISO/AVC
Duration : 2 h 20 min
Bit rate : 4 989 kb/s
Width : 1 280 pixels
Height : 534 pixels
Display aspect ratio : 2.40:1
Frame rate mode : Constant
Frame rate : 23.976 (24000/1001) FPS
Color space : YUV
Chroma subsampling : 4:2:0
Bit depth : 8 bits
Scan type : Progressive
Bits/(Pixel*Frame) : 0.304
Stream size : 4.77 GiB (83%)
Title : potroks
Writing library : x264 core 152 r2851M ba24899
Encoding settings : cabac=1 / ref=9 / deblock=1:-2:-2 / analyse=0x3:0x133 / me=umh / subme=11 / psy=1 / psy_rd=1.00:0.10 / mixed_ref=1 / me_range=48 / chroma_me=1 / trellis=2 / 8x8dct=1 / cqm=0 / deadzone=21,11 / fast_pskip=0 / chroma_qp_offset=-3 / threads=9 / lookahead_threads=2 / sliced_threads=0 / nr=0 / decimate=0 / interlaced=0 / bluray_compat=0 / constrained_intra=0 / bframes=12 / b_pyramid=2 / b_adapt=2 / b_bias=0 / direct=3 / weightb=1 / open_gop=0 / weightp=2 / keyint=240 / keyint_min=23 / scenecut=40 / intra_refresh=0 / rc_lookahead=0 / rc=2pass / mbtree=0 / bitrate=4989 / ratetol=1.0 / qcomp=0.70 / qpmin=0 / qpmax=69 / qpstep=4 / cplxblur=20.0 / qblur=0.5 / vbv_maxrate=50000 / vbv_bufsize=35714 / nal_hrd=none / filler=0 / ip_ratio=1.40 / pb_ratio=1.30 / aq=2:0.70
Language : English
Default : Yes
Forced : No

Audio #1
ID : 2
Format : AC-3
Format/Info : Audio Coding 3
Mode extension : CM (complete main)
Format settings, Endianness : Big
Codec ID : A_AC3
Duration : 2 h 20 min
Bit rate mode : Constant
Bit rate : 448 kb/s
Channel(s) : 6 channels
Channel positions : Front: L C R, Side: L R, LFE
Sampling rate : 48.0 kHz
Frame rate : 31.250 FPS (1536 spf)
Compression mode : Lossy
Stream size : 449 MiB (8%)
Title : Dub | DD 5.1 @ 448 kbps - Blu-ray EUR
Language : Russian
Default : Yes
Forced : No

Audio #2
ID : 3
Format : AC-3
Format/Info : Audio Coding 3
Mode extension : CM (complete main)
Format settings, Endianness : Big
Codec ID : A_AC3
Duration : 2 h 20 min
Bit rate mode : Constant
Bit rate : 448 kb/s
Channel(s) : 6 channels
Channel positions : Front: L C R, Side: L R, LFE
Sampling rate : 48.0 kHz
Frame rate : 31.250 FPS (1536 spf)
Compression mode : Lossy
Stream size : 449 MiB (8%)
Title : Original | DD 5.1 @ 448 kbps
Language : English
Default : No
Forced : No

Text #1
ID : 4
Format : UTF-8
Codec ID : S_TEXT/UTF8
Codec ID/Info : UTF-8 Plain Text
Title : Forced
Language : Russian
Default : Yes
Forced : No

Text #2
ID : 5
Format : UTF-8
Codec ID : S_TEXT/UTF8
Codec ID/Info : UTF-8 Plain Text
Title : iTunes
Language : Russian
Default : No
Forced : No

Text #3
ID : 6
Format : UTF-8
Codec ID : S_TEXT/UTF8
Codec ID/Info : UTF-8 Plain Text
Title : Full
Language : English
Default : No
Forced : No

Text #4
ID : 7
Format : UTF-8
Codec ID : S_TEXT/UTF8
Codec ID/Info : UTF-8 Plain Text
Title : SDH
Language : English
Default : No
Forced : No

Text #5
ID : 8
Format : UTF-8
Codec ID : S_TEXT/UTF8
Codec ID/Info : UTF-8 Plain Text
Title : SDH-Colored
Language : English
Default : No
Forced : No

Menu
00:00:00.000 : :00:00:00.000
00:05:05.889 : :00:05:05.889
00:09:06.713 : :00:09:06.713
00:12:14.108 : :00:12:14.108
00:18:21.017 : :00:18:21.017
00:25:04.503 : :00:25:04.503
00:30:17.399 : :00:30:17.399
00:34:13.092 : :00:34:13.093
00:37:46.347 : :00:37:46.347
00:42:54.447 : :00:42:54.447
00:49:31.802 : :00:49:31.802
00:54:14.626 : :00:54:14.626
00:58:49.818 : :00:58:49.818
01:05:24.129 : :01:05:24.129
01:10:18.381 : :01:10:18.381
01:14:53.823 : :01:14:53.823
01:18:59.193 : :01:18:59.193
01:25:35.672 : :01:25:35.672
01:29:37.372 : :01:29:37.372
01:34:22.824 : :01:34:22.824
01:39:27.712 : :01:39:27.712
01:43:48.222 : :01:43:48.222
01:48:45.394 : :01:48:45.394
01:55:20.580 : :01:55:20.580
01:58:04.703 : :01:58:04.703
02:02:33.930 : :02:02:33.930
02:05:54.797 : :02:05:54.797
02:12:51.213 : :02:12:51.213
pb.wtf



Скачать Планета обезьян: Война через торрент http://i1.imageban.ru/out/2017/10/17/d41d179caba6a28679432d390d097aa3.png Скачать фильм Планета обезьян: Война через торрент бесплантно в хорошем качестве Описание: Армию генетически модифицированных обезьян ожидает новый вызов: они вынуждены вступить в смертельную схватку с армией людей под ... 10 10 9
Info! Золотая раздача, скачанное не засчитывается.
Торрент: Зарегистрирован [2017-10-17 08:07] · скачан: 618 раз
Статус: √ проверено
Размер: 5.76 GB
Как cкачать? Как скачать Планета обезьян: Война через торрент | qTorrent

% Раздел Тема Автор DL S | L
Ultra HD (UHD: 2K, 4K, 8K) — видео сверхвысокой чёткости [ 50.8 GB ] Планета обезьян: Война / War for the Planet of the Apes [2017 UHD Blu-ray 2160p] DUB [] sheker187 Скачать
1 | 0
Ultra HD (UHD: 2K, 4K, 8K) — видео сверхвысокой чёткости [ 60.13 GB ] Планета обезьян: Война / War for the Planet of the Apes [2017 UHD BDRemux 2160p] DUB + 3xAVO sheker187 Скачать
3 | 0
Ultra HD (UHD: 2K, 4K, 8K) — видео сверхвысокой чёткости [ 43.6 GB ] Планета обезьян: Война / War for the Planet of the Apes [2017 UHD BDRemux 2160p] [] DUB+AVO [Д.Есарев] bober100 Скачать
1 | 0
Фильмы (Blu-ray, BD-Remux, HDDVD) [ 45.87 GB ] Планета обезьян: Война / War for the Planet of the Apes [2017 BDRemux 1080p] DUB + 3xAVO sheker187 Скачать
1 | 0
Фильмы 2017 [DVDrip, WEB-DLRip, HDrip] (DUB, MVO) [ 2.18 GB ] Планета обезьян: Война / War for the Planet of the Apes [2017 BDRip] - [] Twi7ter Скачать
3 | 0
Фильмы с авторской озвучкой [ 1.45 GB ] Планета обезьян: Война / War for the Planet of the Apes [2017 HDRip-AVC] [AVO] killermax2013 Скачать
1 | 0
Фильмы (HD 720p, 1080p) (48-60 fps) [ 23.64 GB ] Планета обезьян: Война / War for the Planet of the Apes [2017 BDRip 1080p 60fps Dub VO Original] Tiberiumsun69 Скачать
2 | 0

28-11-2019 20:33  

Отключить всю рекламу на сайте

    Дорогой пользователь! Огромная просьба, поблагодарите релизера, оцените раздачу и оставьте свои комментарий, если Вы скачали Планета обезьян: Война через торрент бесплатно! Внесите свою лепту в развитие PiratBit!
    Комментировать посты могут только пользователи прошедшие не сложную регистрацию
    Показать сообщения:    

    Планета обезьян: Война через торрент
    Скачать бесплатно Планета обезьян: Война
    Планета обезьян: Война скачать торрент
    Планета обезьян: Война смотреть онлайн
    Cкачать фильм Планета обезьян: Война бесплатно
    Планета обезьян: Война скачать торрент в хорошем качестве
    Планета обезьян: Война смотреть онлайн бесплатно в хорошем качестве


    Вы не можете начинать темы
    Вы не можете отвечать на сообщения
    Вы не можете редактировать свои сообщения
    Вы не можете удалять свои сообщения
    Вы не можете голосовать в опросах
    Вы не можете прикреплять файлы к сообщениям
    Вы можете скачивать файлы