Ссылка на приватное зеркало нашего сайта всего за 1$. Внимание количество ограничено!!!

2 сезон

iTunes

1 сезон

1

iTunes

iTunes

iTunes

1 сезон

RePack

30

ИГРА 18+

pack

ВАЖНО

!!Акция!!

Alien_RageХит недели

RePack

MK11
pack

Забери бонус

RePack

jed

!!Акция!!

Alien_Rage

RePack

fifa19

RePack

Assassins Creed: Odyssey

RePack

NEED FOR SPEED™ PAYBACK

4 сезон

9 сезон

Бесстыжие 9 сезон

Все сериалы

все сериалы на PB.wtf

RePack

FAR CRY 5
  

Бумеранг / Сезон: 1 / Серии 1-16 из 16 (Кира Ангелина) [2017 , Мелодрама, HDTV 1080p] Не требуется [Русский] .R.G.Generalfilm pb.wtf

Бумеранг через торрент pb.wtf

Размер: 41.31 GB | Добавлен: 2 года 11 мес. назад | Торрент скачан:15 раз
Скачать  

17-10-2017 13:24 Бумеранг Скачать торрент  

бумеранг



Страна: Россия Yellow, Black & White Pictures
Жанр: Мелодрама
Продолжительность: 00:47:20 Серия
Перевод: Не требуется [Русский]
Режиссер: Кира Ангелина
В ролях:

Анна Пескова (Даша Лебедева), Петр Кислов (Андрей Куликов), Ольга Прокофьева (Регина, мать Даши), Павел Демьянов (Кирилл Юрьевич Пегасов, врач), Мария Болонкина (Валя), Вера Бирюкова (Маша), Валерий Сторожик (профессор Лебедев, отец Даши), Алексей Тихонов (Михаил, новый муж Даши), Екатерина Редникова, Дмитрий Миллер, Алексей Барабаш, Елена Скворцова
Описание:
Дочка профессора Даша Лебедева (Анна Пескова) живет в небольшом академгородке, заканчивает школу, мечтает поступить в хореографическое училище и стать балериной. Даша влюблена в Андрея (Петр Кислов) - простого парня из неблагополучной семьи. Но ее мать Регина (Ольга Прокофьева) не одобряет ни увлечение Даши балетом, ни ее любовь к "будущему уголовнику" Андрею. Отец Даши (Валерий Сторожик) изобрел уникальный транзистор и готовится презентовать его в Москве, поэтому Регине необходимы связи в столице. Мать надеется подобрать дочери московского жениха. Но все планы героев рушатся неожиданно. Неизвестный нападает на Дашу в клубе и насилует ее. Регине удается представить дело так, что все подозрения подают на Андрея. Его сажают в тюрьму. Отцу Даши вскоре отказывают в финансировании, и он умирает от сердечного приступа. Вскоре выясняется, что Даша беременна, но спасти ребенка не удается.

Качество: HDTV 1080p by
Формат: MKV
Видео кодек: AVC
Аудио кодек: AC3
Видео: AVC, 1920x1080 (16:9), 7050 kbps, 25 fps, 0,136 bpp
Аудио: AC3 / 2.0 / 48 kHz / 192 kbps /
General
Unique ID : 198212724159939542211297339017134683041 (0x951E61D01D37192F86AB71D9AF5933A1)
Complete name : E:\Bumerang.2017.HDTV.1080p.R.G.Generalfilm\Bumerang.s01.e01.2017.HDTV 1080p.by.White Smoke.R.G.Generalfilm.mkv
Format : Matroska
Format version : Version 4 / Version 2
File size : 2.39 GiB
Duration : 47 min
Overall bit rate mode : Constant
Overall bit rate : 7 239 kb/s
Movie name : Bumerang.s01.e01.2017.HDTV 1080p.by.White Smoke.R.G.Generalfilm.mkv
Encoded date : UTC 2017-10-17 11:57:59
Writing application : mkvmerge v6.8.0 ('Theme for Great Cities') 64bit built on Mar 2 2014 21:34:26
Writing library : libebml v1.3.0 + libmatroska v1.4.1

Video
ID : 1
Format : AVC
Format/Info : Advanced Video Codec
Format profile : High@L4.1
Format settings, CABAC : Yes
Format settings, ReFrames : 3 frames
Codec ID : V_MPEG4/ISO/AVC
Duration : 47 min
Bit rate mode : Constant
Bit rate : 7 051 kb/s
Width : 1 920 pixels
Height : 1 080 pixels
Display aspect ratio : 16:9
Frame rate mode : Constant
Frame rate : 25.000 FPS
Standard : PAL
Color space : YUV
Chroma subsampling : 4:2:0
Bit depth : 8 bits
Scan type : Progressive
Bits/(Pixel*Frame) : 0.136
Stream size : 2.28 GiB (95%)
Default : Yes
Forced : No
Color range : Limited
Color primaries : BT.709
Transfer characteristics : BT.709
Matrix coefficients : BT.709

Audio
ID : 2
Format : AC-3
Format/Info : Audio Coding 3
Mode extension : CM (complete main)
Format settings, Endianness : Big
Codec ID : A_AC3
Duration : 47 min
Bit rate mode : Constant
Bit rate : 192 kb/s
Channel(s) : 2 channels
Channel positions : Front: L R
Sampling rate : 48.0 kHz
Frame rate : 31.250 FPS (1536 spf)
Compression mode : Lossy
Stream size : 65.0 MiB (3%)
Default : Yes
Forced : No
Внимание! Раздача ведётся путём добавления новых серий; при каждом добавлении создаётся новый торрент.
Чтобы начать докачку новой серии, пользователям необходимо сделать следующее:
1. Остановить скачивание;
2. Удалить старый торрент у себя из клиента (старые серии удалять не надо);
3. Скачать новый торрент и запустить его у себя в клиенте вместо старого, при этом указать клиенту путь в старую папку куда и должно происходить скачивание новых серий. Ваш клиент при этом должен произвести хеширование (проверку) старой папки и будет докачивать только те серии, которых у вас ещё нет. Старые серии при этом не удаляются, а продолжают раздаваться! Eсли вы уже удалили старые серии, то предотвратить повторную закачку старых серий можно, отжав галочку в соответствующих местах при запуске нового торрента.
pb.wtf



Скачать Бумеранг через торрент http://i89.fastpic.ru/big/2017/1017/72/011eb41c758dd05cfbbfdcd1fc3d1272.jpg Скачать фильм Бумеранг через торрент бесплантно в хорошем качестве Описание: Дочка профессора Даша Лебедева (Анна Пескова) живет в небольшом академгородке, заканчивает школу, мечтает поступить в ... 1 10 2
Info! Золотая раздача, скачанное не засчитывается.
Торрент: Зарегистрирован [2017-10-30 22:50] · скачан: 15 раз
Статус: √ проверено
Размер: 41.31 GB
Как cкачать? Как скачать Бумеранг через торрент | qTorrent

28-11-2019 20:33  

Отключить всю рекламу на сайте

30-10-2017 22:51 Бумеранг Скачать торрент  

приносим извинения за позднее обновление проблема с источником трансляцииpb.wtf



    Дорогой пользователь! Огромная просьба, поблагодарите релизера, оцените раздачу и оставьте свои комментарий, если Вы скачали Бумеранг через торрент бесплатно! Внесите свою лепту в развитие PiratBit!
    Комментировать посты могут только пользователи прошедшие не сложную регистрацию
    Показать сообщения:    

    Бумеранг через торрент
    Скачать бесплатно Бумеранг
    Бумеранг скачать торрент
    Бумеранг смотреть онлайн
    Cкачать фильм Бумеранг бесплатно
    Бумеранг скачать торрент в хорошем качестве
    Бумеранг смотреть онлайн бесплатно в хорошем качестве


    Вы не можете начинать темы
    Вы не можете отвечать на сообщения
    Вы не можете редактировать свои сообщения
    Вы не можете удалять свои сообщения
    Вы не можете голосовать в опросах
    Вы не можете прикреплять файлы к сообщениям
    Вы можете скачивать файлы