1 сезон

1 сезон

iTunes

1

КиноПоиск HD

Кинопоиск HD

iTunes

13

1 сезон

RePack

30

Ultimate

ВАЖНО

ИГРА 18+

pack

RePack

MK11
pack

Легкие деньги

RePack

jed

RePack

fifa19

RePack

RDR2

RePack

NEED FOR SPEED™ PAYBACK

4 сезон

9 сезон

Бесстыжие 9 сезон

Все сериалы

все сериалы на PB.wtf

RePack

FAR CRY 5
  
Magnet ссылка

В Америке / In America (Джим Шеридан) [2002 г., Драма, WEB-DLRip] MVO pb.wtf

В Америке через торрент pb.wtf

Размер: 1.45 GB | Добавлен: 3 года 5 мес. назад | Торрент скачан:22 раза
Скачать  

17-10-2017 17:22 В Америке Скачать торрент  

В Америке / In America
Год выпуска: 2002
Страна: Ирландия, Великобритания
Жанр: Драма
Продолжительность: 01:45:38
Перевод: Профессиональный (многоголосый) [Двадцатый Век Фокс СНГ]

Режиссер: Джим Шеридан

Бюджет: $15 539 656

rating

В ролях: Пэдди Консидайн, Саманта Мортон, Сара Болджер, Эмма Болджер, Нил Джонс, Рэндолл Карлтон, Киаран Кронин, Джимон Хонсу, Хуан Карлос Эрнандес, Най Херон

Описание: Тысячи, миллионы людей стремятся в Соединенные Штаты Америки в поисках лучшей жизни, надеясь на исполнение своих самых заветных желаний. Семья театрального актера Джонни переезжает из Ирландии в Нью-Йорк, чтобы начать свою жизнь заново и избавиться от призраков прошлого. Почти мистический злой рок преследовал их, горе поселилось в их доме, и они были вынуждены бежать, чтобы спасти свою семью. Без денег и с имуществом в виде пары чемоданов, старой машины и видеокамеры, но полные оптимизма и веры в свои силы, Джонни и его жена Сара пытаются адаптироваться к жестоким и странным нравам Нью-Йорка. Их дочки — десятилетняя Кристи и маленькая Ариэль, наоборот, считают Америку волшебной страной, где живут чудесные люди. Как ни странно, именно вера дочерей в доброту людей и любовь ко всем окружающим помогут Джонни и Саре спасти семью от распада.

Качество: WEB-DLRip
Формат: AVI
Видео: XviD, 720x400, 1508 kbps, 23.976 fps
Аудио: AC3, 448 kbps, 5.1 ch
Релиз от: Koenig
Общее
Полное имя : In.America.2002.1080p.WEB-DLRip.avi
Формат : AVI
Формат/Информация : Audio Video Interleave
Размер файла : 1,45 Гбайт
Продолжительность : 1 ч. 45 м.
Общий поток : 1965 Кбит/сек
Программа кодирования : VirtualDubMod 1.5.10.2 (build 2540/release)
Библиотека кодирования : VirtualDubMod build 2540/release

Видео
Идентификатор : 0
Формат : MPEG-4 Visual
Профиль формата : Advanced Simple@L5
Параметр BVOP формата : 1
Параметр QPel формата : Нет
Параметр GMC формата : Без точки перехода
Параметр матрицы формата : Выборочная
Идентификатор кодека : XVID
Идентификатор кодека/Подсказка : XviD
Продолжительность : 1 ч. 45 м.
Битрейт : 1508 Кбит/сек
Ширина : 720 пикселей
Высота : 400 пикселей
Соотношение сторон : 16:9
Частота кадров : 23,976 (24000/1001) кадра/сек
Цветовое пространство : YUV
Субдискретизация насыщенности : 4:2:0
Битовая глубина : 8 бит
Тип развёртки : Прогрессивная
Метод сжатия : С потерями
Бит/(Пиксели*Кадры) : 0.218
Размер потока : 1,11 Гбайт (77%)
Библиотека кодирования : XviD 65

Аудио
Идентификатор : 1
Формат : AC-3
Формат/Информация : Audio Coding 3
Параметр Endianness формата : Big
Идентификатор кодека : 2000
Продолжительность : 1 ч. 45 м.
Вид битрейта : Постоянный
Битрейт : 448 Кбит/сек
Каналы : 6 каналов
Расположение каналов : Front: L C R, Side: L R, LFE
Частота : 48,0 КГц
Частота кадров : 31,250 кадров/сек (1536 spf)
Битовая глубина : 16 бит
Метод сжатия : С потерями
Размер потока : 338 Мбайт (23%)
Выравнивание : Разделение по промежуткам
Продолжительность промежутка : 42 мс. (1,00 видеокадр)
Время предзагрузки промежутка : 500 мс.
ServiceKind/String : Complete Main

pb.wtf



Скачать В Америке через торрент https://pic1.kartinco.top/images/11/yywdu.jpg Скачать фильм В Америке через торрент бесплантно в хорошем качестве Описание: Тысячи, миллионы людей стремятся в Соединенные Штаты Америки в поисках лучшей жизни, надеясь на исполнение своих самых заветных ... 10 10 1
Торрент: Зарегистрирован [2017-10-17 17:22] · скачан: 22 раз
Статус: √ проверено
Размер: 1.45 GB
Как cкачать? Как скачать В Америке через торрент | UTorrent

% Раздел Тема Автор DL S | L
Фильмы 2021 [DVDrip, WEB-DLRip, HDrip] (DUB, MVO) [ 1.46 GB ] Поездка в Америку 2 / Coming 2 America [2021 WEB-DLRip] MVO [Jaskier] bober100 Скачать
11 | 0
Ultra HD (UHD: 2K, 4K, 8K) — видео сверхвысокой чёткости [ 12.8 GB ] Поездка в Америку 2 / Coming 2 America [2021 UHD WEB-DL 2160p] MVO [Jaskier] +AVO [Ю.Сербин] bober100 Скачать
3 | 0
Фильмы (WEB-DL 720p, 1080p) [ 8.49 GB ] Поездка в Америку 2 / Coming 2 America [2021 WEB-DL 1080p] MVO [Jaskier] +AVO [Ю.Сербин] bober100 Скачать
6 | 0
Фильмы (Blu-ray, BD-Remux, HDDVD) [ 23.09 GB ] Поездка в Америку / Coming To America [1988 Blu-ray disc 1080p] 3x[AVO] + 3x[DVO] + 2x[MVO] +[DVO] killermax2013 Скачать
2 | 0
R.G. Resident & PiratVoice - Фильмы, Видео [ 522 MB ] Поездка в Америку / Coming to America [1988 HDRip | КПК ] MVO Cтрана Скачать
2 | 1
Фильмы до 2000 г. [ 2.09 GB ] Поездка в Америку / Coming To America [1988 BDRip] 3x[MVO] killermax2013 Скачать
2 | 0
Фильмы [HD 720p, 1080p] (Хороший звук DUB, MVO) [ 23.09 GB ] Однажды в Америке / Once Upon a Time in America [1983 BDRip 1080p MVO AVO] _denis_100 Скачать
1 | 0

28-11-2019 20:33  

Отключить всю рекламу на сайте

    Дорогой пользователь! Огромная просьба, поблагодарите релизера, оцените раздачу и оставьте свои комментарий, если Вы скачали В Америке через торрент бесплатно! Внесите свою лепту в развитие PiratBit!
    Комментировать посты могут только пользователи прошедшие не сложную регистрацию
    Показать сообщения:    

    В Америке через торрент
    Скачать бесплатно В Америке
    В Америке скачать торрент
    В Америке смотреть онлайн
    Cкачать фильм В Америке бесплатно
    В Америке скачать торрент в хорошем качестве
    В Америке смотреть онлайн бесплатно в хорошем качестве


    Вы не можете начинать темы
    Вы не можете отвечать на сообщения
    Вы не можете редактировать свои сообщения
    Вы не можете удалять свои сообщения
    Вы не можете голосовать в опросах
    Вы не можете прикреплять файлы к сообщениям
    Вы можете скачивать файлы