Ссылка на приватное зеркало нашего сайта всего за 1$. Внимание количество ограничено!!!

2 сезон

iTunes

1 сезон

1

2 сезон

2 сезон

iTunes

1 сезон

RePack

30

Новинка

ВАЖНО

ИГРА 18+

pack

RePack

MK11
pack

Забери бонус

RePack

jed

!!Акция!!

Alien_Rage

RePack

fifa19

RePack

Assassins Creed: Odyssey

RePack

NEED FOR SPEED™ PAYBACK

4 сезон

9 сезон

Бесстыжие 9 сезон

Все сериалы

все сериалы на PB.wtf

RePack

FAR CRY 5
  

Путешественники / Travelers / Сезон: 2 / Серии 1-12 из 12 (Энди Микита, Мартин Вуд, Уильям Варинг) [2017, Канада, фантастика, WEB-DL 720p] MVO [BaibaKo] pb.wtf

Путешественники через торрент pb.wtf

Размер: 14.94 GB | Добавлен: 2 года 11 мес. назад | Торрент скачан:31 раз
Скачать  

18-10-2017 04:35 Путешественники Скачать торрент  

Путешественники / Travelers


  • Год выпуска: 2017
  • Страна: Канада
  • Жанр: фантастика
  • Продолжительность: 00:45:04 (Серия)
  • Перевод: Профессиональный многоголосый [BaibaKo]
  • Режиссер: Энди Микита / Andy Mikita, Мартин Вуд / Martin Wood, Уильям Варинг / William Waring
  • В ролях:

    МакКензи Портер (Marcy Warton), Неста Купер (Carly Shannon), Эрик МакКормак (Grant MacLaren), Джаред Абрахамсон (Trever Holden), Рейли Долмэн (Philip Pearson), Патрик Гилмор (David Mailer), Леа Кейрнс (Kathryn Maclaren), Дж. Алекс Бринсон (Jeff Conniker), Дженнифер Спенс (Grace Day), Уильям МакДональд (Gary Holden), Кристин Кофски (Officer Boyd), Иэн Трейси


  • Через сотни лет оставшиеся в живых люди нашли способ отправлять сознание отдельных личностей в 21-й век. Эти путешественники во времени живут жизнью обычных людей и пытаются спасти человечество от ужасного будущего.
  • Рейтинг:

    rating
  • Качество: WEB-DL 720p
  • Формат: :MKV
  • Видео кодек: AVC
  • Аудио кодек: AC3
  • Видео: 2528 Кбит/сек, 1280*642 (2,000), в 19,181 кадров/сек, AVC
  • Аудио №1: русский 384 Кбит/сек, 48,0 КГц, 16 бит, 6 каналов, AC-3 |[BaibaKo]|
  • Аудио №2: английский 384 Кбит/сек, 48,0 КГц, 16 бит, 6 каналов, AC-3
  • Релиз от: GEKADOL

    Внимание! Раздача ведётся путём добавления новых серий; при каждом добавлении создаётся новый торрент. Чтобы начать докачку новой серии, пользователям необходимо сделать следующее:
    (1) остановить скачивание,
    (2) удалить старый торрент у себя из клиента (старые серии удалять не надо),
    (3) скачать новый торрент и запустить его у себя в клиенте вместо старого, при этом указать клиенту путь в старую папку куда и должно происходить скачивание новых серий.
    Ваш клиент при этом должен произвести хеширование (проверку) старой папки (если не производит сам - помогите ему сделать это), и будет докачивать только те серии которых у вас ещё нет. Старые серии при этом не удаляются, а продолжают раздаваться!
    Eсли вы уже удалили старые серии, то предотвратить повторную закачку старых серий можно, отжав галочку в соответствующих местах при запуске нового торрента. По возможности, желательно не удалять старые серии как можно дольше чтобы релизёр не столько продолжал раздавать старые серии, а смог сконцентрироваться на новых.
    Общее
    Уникальный идентификатор : 217589627354521184889413672989049876796 (0xA3B23CE66CE9DC419698689ED3C1F13C)
    Полное имя : F:\Загрузки\Путешественники (Travelers 2)\Travelers.s02e01.HD720p.WEB-DL.Rus.Eng.BaibaKo.tv.mkv
    Формат : Matroska
    Версия формата : Version 4 / Version 2
    Размер файла : 1,02 Гбайт
    Продолжительность : 44 м. 24 с.
    Общий поток : 3298 Кбит/сек
    Дата кодирования : UTC 2017-10-18 04:13:11
    Программа кодирования : mkvmerge v16.0.0 ('Protest') 64-bit
    Библиотека кодирования : libebml v1.3.5 + libmatroska v1.4.8

    Видео
    Идентификатор : 1
    Формат : AVC
    Формат/Информация : Advanced Video Codec
    Профиль формата : High@L4.1
    Настройки формата : CABAC / 4 Ref Frames
    Параметр CABAC формата : Да
    Параметр RefFrames формата : 4 кадра
    Идентификатор кодека : V_MPEG4/ISO/AVC
    Продолжительность : 44 м. 24 с.
    Битрейт : 2528 Кбит/сек
    Ширина : 1280 пикселей
    Высота : 642 пикселей
    Соотношение сторон : 2,000
    Режим частоты кадров : Постоянный
    Частота кадров : 19,181 кадров/сек
    Цветовое пространство : YUV
    Субдискретизация насыщенности : 4:2:0
    Битовая глубина : 8 бит
    Тип развёртки : Прогрессивная
    Бит/(Пиксели*Кадры) : 0.161
    Размер потока : 803 Мбайт (77%)
    Default : Да
    Forced : Нет

    Аудио #1
    Идентификатор : 2
    Формат : AC-3
    Формат/Информация : Audio Coding 3
    Параметр Endianness формата : Big
    Идентификатор кодека : A_AC3
    Продолжительность : 44 м. 24 с.
    Вид битрейта : Постоянный
    Битрейт : 384 Кбит/сек
    Каналы : 6 каналов
    Расположение каналов : Front: L C R, Side: L R, LFE
    Частота : 48,0 КГц
    Частота кадров : 31,250 кадров/сек (1536 SPF)
    Битовая глубина : 16 бит
    Метод сжатия : С потерями
    Задержка видео : 8 мс.
    Размер потока : 122 Мбайт (12%)
    Язык : Russian
    ServiceKind/String : Complete Main
    Default : Да
    Forced : Нет

    Аудио #2
    Идентификатор : 3
    Формат : AC-3
    Формат/Информация : Audio Coding 3
    Параметр Endianness формата : Big
    Идентификатор кодека : A_AC3
    Продолжительность : 44 м. 24 с.
    Вид битрейта : Постоянный
    Битрейт : 384 Кбит/сек
    Каналы : 6 каналов
    Расположение каналов : Front: L C R, Side: L R, LFE
    Частота : 48,0 КГц
    Частота кадров : 31,250 кадров/сек (1536 SPF)
    Битовая глубина : 16 бит
    Метод сжатия : С потерями
    Задержка видео : 23 мс.
    Размер потока : 122 Мбайт (12%)
    Язык : English
    ServiceKind/String : Complete Main
    Default : Нет
    Forced : Нет





    Скриншоты:
    скриншот   скриншот   скриншот   скриншот   скриншот   скриншот   скриншот  
    скриншот  

    Раздача ведётся путём добавления новых серий. Добавлена 11,12 серия (24.12.2017).Просьба перекачать торрент файл.

    pb.wtf



  • Скачать Путешественники через торрент http://pic1.kartinco.top/images/11/na7be.jpg Скачать фильм Путешественники через торрент бесплантно в хорошем качестве qw.png Через сотни лет оставшиеся в живых люди нашли способ отправлять сознание отдельных личностей в 21-й век. Эти путешественники во ... 9.1 10 11
    Info! Золотая раздача, скачанное не засчитывается.
    Торрент: Зарегистрирован [2017-12-24 00:43] · скачан: 31 раз
    Статус: √ проверено
    Размер: 14.94 GB
    Как cкачать? Как скачать Путешественники через торрент | qTorrent

    % Раздел Тема Автор DL S | L
    Зарубежные сериалы [ 14.38 GB ] Путешественники / Travelers / Сезон: 2 / Серии 1-12 из 12 [2017 WEBRip 1080p] [MVO ] killermax2013 Скачать
    1 | 0


    Последний раз редактировалось: GEKADOL (2017-12-24 00:46), всего редактировалось 18 раз(а)

    28-11-2019 20:33  

    Отключить всю рекламу на сайте

    10-11-2017 00:47 Путешественники Скачать торрент  

    Заменена 3 серия на PROPER с постоянными голосами!!!! pb.wtf



      Дорогой пользователь! Огромная просьба, поблагодарите релизера, оцените раздачу и оставьте свои комментарий, если Вы скачали Путешественники через торрент бесплатно! Внесите свою лепту в развитие PiratBit!
      Комментировать посты могут только пользователи прошедшие не сложную регистрацию
      Показать сообщения:    

      Путешественники через торрент
      Скачать бесплатно Путешественники
      Путешественники скачать торрент
      Путешественники смотреть онлайн
      Cкачать фильм Путешественники бесплатно
      Путешественники скачать торрент в хорошем качестве
      Путешественники смотреть онлайн бесплатно в хорошем качестве


      Вы не можете начинать темы
      Вы не можете отвечать на сообщения
      Вы не можете редактировать свои сообщения
      Вы не можете удалять свои сообщения
      Вы не можете голосовать в опросах
      Вы не можете прикреплять файлы к сообщениям
      Вы можете скачивать файлы