2 сезон

iTunes

1 сезон

1

iTunes

iTunes

iTunes

1 сезон

RePack

30

ИГРА 18+

pack

ВАЖНО

!!Акция!!

Alien_RageХит недели

RePack

MK11
pack

Забери бонус

RePack

jed

!!Акция!!

Alien_Rage

RePack

fifa19

RePack

Assassins Creed: Odyssey

RePack

NEED FOR SPEED™ PAYBACK

4 сезон

9 сезон

Бесстыжие 9 сезон

Все сериалы

все сериалы на PB.wtf

RePack

FAR CRY 5
  

Опасный Бангкок / Bangkok Dangerous (Оксид Пан, Дэнни Пан) [2008, боевик, триллер, драма, криминал, BDRip 720p by msltel] DUB, 2 x AVO pb.wtf

Опасный Бангкок через торрент pb.wtf

Размер: 5.02 GB | Добавлен: 3 года назад | Торрент скачан:116 раз
Скачать  

18-10-2017 05:41 Опасный Бангкок Скачать торрент  

Название: Опасный Бангкок
Оригинальное название: Bangkok Dangerous
Год выпуска: 2008
Страна: СЩА
Жанр: боевик, триллер, драма, криминал
Продолжительность: 01:39:12
Перевод: дублированный, авторский

Режиссер: Оксид Пан, Дэнни Пан
В ролях: Николас Кейдж, Шакрит Ямнарм, Чарли Ян, Пэнворд Хаммани, Ниратисай Канджарук, Дом Хетракул, Так Напаскорн, Стив Балдоччи, Крис Хибинк, Джеймс Уит, Питер Шадрин, Эндрю Феффер, Оливер Стил, Крис Ловенштейн, Оливер Экерманн

О фильме: Четыре главных правила наемного убийцы: 1) не задавать вопросов; 2) нет правых и виноватых; 3) не интересоваться людьми, не имеющих отношения к работе; 4) знать, когда уйти, и уйти богатым. В этом городе Вы можете купить всё, но Вы не можете купить всех. И тогда для Вас нет страшнее человека, чем наёмный убийца, который отвечает на удар...



Качество: BDRip 720p
Формат: MKV
Видео: MPEG-4 AVC, 5454 Кбит/с, 1280х720
Аудио 1: русский, AC3, 448 kbps, 6 ch, 48 kHz [дублированный, Мосфильм со вставками Немахова на тайскую речь]
Аудио 2: русский, AC3, 448 kbps, 6 ch, 48 kHz [авторский, Андрей Дольский]
Аудио 3: русский, AC3, 448 kbps, 6 ch, 48 kHz [авторский, Юрий Немахов]
Аудио 4: английский, AC3, 448 kbps, 6 ch, 48 kHz [оригинал]
Субтитры 1: русские
Субтитры 2: английские
Имеются поименованные главы/чаптеры.
Общее
Уникальный идентификатор : 232745701499397567263498837472402282556 (0xAF19310C567BCFBBA2FF2220F84D183C)
Полное имя : D:\Video\Опасный Бангкок.2008.BDRip.720p by msltel.mkv
Формат : Matroska
Версия формата : Version 4 / Version 2
Размер файла : 5,02 Гбайт
Продолжительность : 1 ч. 39 м.
Общий поток : 7249 Кбит/сек
Название фильма : Rip by msltel
Дата кодирования : UTC 2017-10-18 02:10:09
Программа кодирования : mkvmerge v8.2.0 ('World of Adventure') 64bit
Библиотека кодирования : libebml v1.3.1 + libmatroska v1.4.2

Видео
Идентификатор : 1
Формат : AVC
Формат/Информация : Advanced Video Codec
Профиль формата : High@L4.1
Параметр CABAC формата : Да
Параметр RefFrames формата : 9 кадров
Идентификатор кодека : V_MPEG4/ISO/AVC
Продолжительность : 1 ч. 39 м.
Битрейт : 5454 Кбит/сек
Ширина : 1280 пикселей
Высота : 720 пикселей
Соотношение сторон : 16:9
Режим частоты кадров : Постоянный
Частота кадров : 23,976 (24000/1001) кадра/сек
Цветовое пространство : YUV
Субдискретизация насыщенности : 4:2:0
Битовая глубина : 8 бит
Тип развёртки : Прогрессивная
Бит/(Пиксели*Кадры) : 0.247
Размер потока : 3,78 Гбайт (75%)
Библиотека кодирования : x264 core 146 r2538 121396c
Настройки программы : cabac=1 / ref=9 / deblock=1:-3:-2 / analyse=0x3:0x113 / me=umh / subme=11 / psy=1 / psy_rd=1.00:0.15 / mixed_ref=1 / me_range=32 / chroma_me=1 / trellis=2 / 8x8dct=1 / cqm=0 / deadzone=21,11 / fast_pskip=0 / chroma_qp_offset=-3 / threads=6 / lookahead_threads=1 / sliced_threads=0 / nr=0 / decimate=1 / interlaced=0 / bluray_compat=0 / constrained_intra=0 / bframes=12 / b_pyramid=2 / b_adapt=2 / b_bias=0 / direct=1 / weightb=1 / open_gop=0 / weightp=2 / keyint=230 / keyint_min=23 / scenecut=40 / intra_refresh=0 / rc_lookahead=40 / rc=crf / mbtree=0 / crf=20.9 / qcomp=0.60 / qpmin=0 / qpmax=69 / qpstep=4 / vbv_maxrate=62500 / vbv_bufsize=78125 / crf_max=0.0 / nal_hrd=none / filler=0 / ip_ratio=1.40 / pb_ratio=1.30 / aq=1:1.00
Язык : English
Default : Да
Forced : Нет

Аудио #1
Идентификатор : 2
Формат : AC-3
Формат/Информация : Audio Coding 3
Параметр Endianness формата : Big
Идентификатор кодека : A_AC3
Продолжительность : 1 ч. 39 м.
Вид битрейта : Постоянный
Битрейт : 448 Кбит/сек
Каналы : 6 каналов
Расположение каналов : Front: L C R, Side: L R, LFE
Частота : 48,0 КГц
Частота кадров : 31,250 кадров/сек (1536 SPF)
Битовая глубина : 16 бит
Метод сжатия : С потерями
Размер потока : 318 Мбайт (6%)
Заголовок : DUB.Мосфильм со вставками Немахова на тайскую речь
Язык : Russian
ServiceKind/String : Complete Main
Default : Да
Forced : Нет

Аудио #2
Идентификатор : 3
Формат : AC-3
Формат/Информация : Audio Coding 3
Параметр Endianness формата : Big
Идентификатор кодека : A_AC3
Продолжительность : 1 ч. 39 м.
Вид битрейта : Постоянный
Битрейт : 448 Кбит/сек
Каналы : 6 каналов
Расположение каналов : Front: L C R, Side: L R, LFE
Частота : 48,0 КГц
Частота кадров : 31,250 кадров/сек (1536 SPF)
Битовая глубина : 16 бит
Метод сжатия : С потерями
Размер потока : 318 Мбайт (6%)
Заголовок : Андрей Дольский
Язык : Russian
ServiceKind/String : Complete Main
Default : Нет
Forced : Нет

Аудио #3
Идентификатор : 4
Формат : AC-3
Формат/Информация : Audio Coding 3
Параметр Endianness формата : Big
Идентификатор кодека : A_AC3
Продолжительность : 1 ч. 39 м.
Вид битрейта : Постоянный
Битрейт : 448 Кбит/сек
Каналы : 6 каналов
Расположение каналов : Front: L C R, Side: L R, LFE
Частота : 48,0 КГц
Частота кадров : 31,250 кадров/сек (1536 SPF)
Битовая глубина : 16 бит
Метод сжатия : С потерями
Размер потока : 318 Мбайт (6%)
Заголовок : Юрий Немахов
Язык : Russian
ServiceKind/String : Complete Main
Default : Нет
Forced : Нет

Аудио #4
Идентификатор : 5
Формат : AC-3
Формат/Информация : Audio Coding 3
Параметр Endianness формата : Big
Идентификатор кодека : A_AC3
Продолжительность : 1 ч. 39 м.
Вид битрейта : Постоянный
Битрейт : 448 Кбит/сек
Каналы : 6 каналов
Расположение каналов : Front: L C R, Side: L R, LFE
Частота : 48,0 КГц
Частота кадров : 31,250 кадров/сек (1536 SPF)
Битовая глубина : 16 бит
Метод сжатия : С потерями
Размер потока : 318 Мбайт (6%)
Заголовок : original
Язык : English
ServiceKind/String : Complete Main
Default : Нет
Forced : Нет

Текст #1
Идентификатор : 6
Формат : UTF-8
Идентификатор кодека : S_TEXT/UTF8
Идентификатор кодека/Информация : UTF-8 Plain Text
Продолжительность : 1 ч. 29 м.
Битрейт : 24 бит/сек
ElementCount : 343
Размер потока : 15,8 Кбайт (0%)
Заголовок : русские
Язык : Russian
Default : Нет
Forced : Нет

Текст #2
Идентификатор : 7
Формат : UTF-8
Идентификатор кодека : S_TEXT/UTF8
Идентификатор кодека/Информация : UTF-8 Plain Text
Продолжительность : 1 ч. 29 м.
Битрейт : 16 бит/сек
ElementCount : 375
Размер потока : 11,0 Кбайт (0%)
Заголовок : английские
Язык : English
Default : Нет
Forced : Нет

Меню
00:00:00.000 : en:Not For Everyone
00:08:08.529 : en:4 Rules
00:12:36.839 : en:Venturing Out
00:20:47.329 : en:Night Work
00:27:52.545 : en:Human Eyes
00:32:45.713 : en:Duty Calls
00:40:19.083 : en:Helping Hand
00:44:32.961 : en:Show Me
00:52:11.127 : en:Teacher
00:59:19.973 : en:Bangkok Jobs
01:08:28.395 : en:Out on the Town
01:11:33.455 : en:Breaking Arrangements
01:18:50.308 : en:Making Changes
01:23:25.458 : en:Daylight Mission
01:27:13.019 : en:River Chase
01:31:25.313 : en:Discovering Truth
01:39:12.738 : en:A Good Man
pb.wtf



Скачать Опасный Бангкок через торрент http://s019.radikal.ru/i618/1710/ce/758f4638b55a.jpg Скачать фильм Опасный Бангкок через торрент бесплантно в хорошем качестве О фильме: Четыре главных правила наемного убийцы: 1) не задавать вопросов; 2) нет правых и виноватых; 3) не интересоваться людьми, не ... 9.4 10 5
Info! Золотая раздача, скачанное не засчитывается.
Торрент: Зарегистрирован [2017-10-18 05:41] · скачан: 116 раз
Статус: √ проверено
Размер: 5.02 GB
Как cкачать? Как скачать Опасный Бангкок через торрент | qTorrent

% Раздел Тема Автор DL S | L
Фильмы [HD 720p, 1080p] (Хороший звук DUB, MVO) [ 16.64 GB ] Опасный Бангкок / Bangkok Dangerous [2008 BDRip 1080p by msltel] DUB 2 x AVO msltel Скачать
2 | 0

28-11-2019 20:33  

Отключить всю рекламу на сайте

    Дорогой пользователь! Огромная просьба, поблагодарите релизера, оцените раздачу и оставьте свои комментарий, если Вы скачали Опасный Бангкок через торрент бесплатно! Внесите свою лепту в развитие PiratBit!
    Комментировать посты могут только пользователи прошедшие не сложную регистрацию
    Показать сообщения:    

    Опасный Бангкок через торрент
    Скачать бесплатно Опасный Бангкок
    Опасный Бангкок скачать торрент
    Опасный Бангкок смотреть онлайн
    Cкачать фильм Опасный Бангкок бесплатно
    Опасный Бангкок скачать торрент в хорошем качестве
    Опасный Бангкок смотреть онлайн бесплатно в хорошем качестве


    Вы не можете начинать темы
    Вы не можете отвечать на сообщения
    Вы не можете редактировать свои сообщения
    Вы не можете удалять свои сообщения
    Вы не можете голосовать в опросах
    Вы не можете прикреплять файлы к сообщениям
    Вы можете скачивать файлы