Ссылка на приватное зеркало нашего сайта всего за 1$. Внимание количество ограничено!!!

2 сезон

iTunes

1 сезон

1

2 сезон

2 сезон

iTunes

1 сезон

RePack

30

Ultimate

ВАЖНО

ИГРА 18+

pack

RePack

MK11
pack

Забери бонус

RePack

jed

!!Акция!!

Alien_Rage

RePack

fifa19

RePack

Assassins Creed: Odyssey

RePack

NEED FOR SPEED™ PAYBACK

4 сезон

9 сезон

Бесстыжие 9 сезон

Все сериалы

все сериалы на PB.wtf

RePack

FAR CRY 5
  

Охотник за разумом / Mindhunter / Сезон: 1 / Серии 1-10 из 10 (Дэвид Финчер) [2017, триллер, драма, криминал, WEBRip] [MVO] (Newstudio) pb.wtf

Охотник за разумом через торрент pb.wtf

Размер: 9.22 GB | Добавлен: 1 год 4 мес. назад | Торрент скачан:84 раза
Скачать  

18-10-2017 14:33 Охотник за разумом Скачать торрент  

Охотник за разумом / Mindhunter
Год выпуска • 2017
Страна • США
Жанр • драма, криминал, триллер
Продолжительность 1x• ~ 01:00:00
Перевод• Профессиональный (многоголосый, закадровый) "Newstudio"
Субтитры: нет

Режиссер • Дэвид Финчер, Эндрю Дуглас, Азиф Кападиа

В ролях • Джонатан Грофф, Холт МакКэллани, Анна Торв, Коттер Смит, Сонни Валиченти, Ханна Гросс, Камерон Бриттон, Алекс Морф, Стэйси Рока, Джо Таттл и др.

Описание • Действие сериала происходит в 1979 году. В центре сюжета два агента ФБР, которые опрашивают находящихся в заключении серийных убийц с целью понимания их образа мыслей, а также раскрытия текущих преступлений.



• Качество: WEBRip
• Формат: AVI
• Видео: XviD, 720x320, 23.976 fps, 1624 Kbps, 0.294 bit/pixel
• Аудио Rus: AC-3, 48,0 kHz, 6 ch, 384 kbps | Newstudio
• Аудио Eng: AC-3, 48,0 kHz, 6 ch, 384 kbps
• Субтитры: Отсутствуют
• Реклама: Отсутствует
• Рип tahiy

Общее
Полное имя : E:\Mindhunter.(S01E01)_ [tahiy].avi
Формат : AVI
Формат/Информация : Audio Video Interleave
Размер файла : 1,00 Гбайт
Продолжительность : 59 м. 33 с.
Общий поток : 2406 Кбит/сек
Программа кодирования : VirtualDubMod 1.5.10.3 | www.virtualdub-fr.org || (build 2550/release)
Библиотека кодирования : VirtualDubMod build 2550/release

Видео
Идентификатор : 0
Формат : MPEG-4 Visual
Профиль формата : Advanced Simple@L5
Настройки формата : BVOP1
Параметр BVOP формата : 1
Параметр QPel формата : Нет
Параметр GMC формата : Без точки перехода
Параметр матрицы формата : Default (MPEG)
Идентификатор кодека : XVID
Идентификатор кодека/Подсказка : XviD
Продолжительность : 59 м. 33 с.
Битрейт : 1624 Кбит/сек
Ширина : 720 пикселей
Высота : 320 пикселей
Соотношение сторон : 2,25:1
Частота кадров : 23,976 (24000/1001) кадра/сек
Цветовое пространство : YUV
Субдискретизация насыщенности : 4:2:0
Битовая глубина : 8 бит
Тип развёртки : Прогрессивная
Метод сжатия : С потерями
Бит/(Пиксели*Кадры) : 0.294
Размер потока : 692 Мбайт (68%)
Библиотека кодирования : XviD 73

Аудио #1
Идентификатор : 1
Формат : AC-3
Формат/Информация : Audio Coding 3
Идентификатор кодека : 2000
Продолжительность : 59 м. 33 с.
Вид битрейта : Постоянный
Битрейт : 384 Кбит/сек
Каналы : 6 каналов
Расположение каналов : Front: L C R, Side: L R, LFE
Частота : 48,0 КГц
Частота кадров : 31,250 кадров/сек (1536 SPF)
Битовая глубина : 16 бит
Метод сжатия : С потерями
Размер потока : 164 Мбайт (16%)
Выравнивание : Разделение по промежуткам
Продолжительность промежутка : 42 мс. (1,00 видеокадр)
Время предзагрузки промежутка : 500 мс.
ServiceKind/String : Complete Main

Аудио #2
Идентификатор : 2
Формат : AC-3
Формат/Информация : Audio Coding 3
Идентификатор кодека : 2000
Продолжительность : 59 м. 33 с.
Вид битрейта : Постоянный
Битрейт : 384 Кбит/сек
Каналы : 6 каналов
Расположение каналов : Front: L C R, Side: L R, LFE
Частота : 48,0 КГц
Частота кадров : 31,250 кадров/сек (1536 SPF)
Битовая глубина : 16 бит
Метод сжатия : С потерями
Размер потока : 164 Мбайт (16%)
Выравнивание : Разделение по промежуткам
Продолжительность промежутка : 42 мс. (1,00 видеокадр)
Время предзагрузки промежутка : 500 мс.
ServiceKind/String : Complete Main

скриншот  скриншот  скриншот  
pb.wtf



Скачать Охотник за разумом через торрент http://i91.fastpic.ru/big/2017/1018/b4/ca184c092c9e60d4fce7d29e195553b4.jpg Скачать фильм Охотник за разумом через торрент бесплантно в хорошем качестве Описание • Действие сериала происходит в 1979 году. В центре сюжета два агента ФБР, которые опрашивают находящихся в заключении серийных ... 9.3 10 11
Торрент: Зарегистрирован [2019-07-29 11:42] · скачан: 84 раз
Статус: √ проверено
Размер: 9.22 GB
Как cкачать? Как скачать Охотник за разумом через торрент | qTorrent

% Раздел Тема Автор DL S | L
Зарубежные сериалы [ 52.16 GB ] Охотник за разумом / Mindhunter / Сезон: 1-2 / Серии: 1-19 из 19 [2017-2019 WEBRip 1080p] [DVO] killermax2013 Скачать
1 | 0
Зарубежные сериалы [ 14.05 GB ] Охотник за разумом / Mindhunter / Сезон: 2 / Серии: 1-9 из 9 [2019 WEB-DL 1080p] MVO [Jaskier] bober100 Скачать
1 | 0
Фильмы без перевода [ 13.25 GB ] Охотник за разумом / Mindhunter / Сезон: 2 / Серии: 1- 9 из 9 [2019 WEB-DL 1080p] 2x[Sub] killermax2013 Скачать
1 | 0
Зарубежные сериалы [ 14.66 GB ] Охотник за разумом / Mindhunter / Сезон: 2 / Серии: 1-9 из 9 [2019 WEB-DL 1080p] MVO [Lostfilm] bober100 Скачать
1 | 0
Зарубежные сериалы [ 14.68 GB ] Охотник за разумом / Mindhunter / Сезон: 2 / Серии: 1-9 из 9 [2019 WEB-DL 1080p] [MVO] killermax2013 Скачать
1 | 0
Зарубежные сериалы [ 22.1 GB ] Охотник за разумом / Mindhunter / Сезон: 2 / Серии: 1-9 из 9 [2019 WEBRip 1080p] MVO [Profix Media] bober100 Скачать
1 | 0
Зарубежные сериалы [ 14.65 GB ] Охотник за разумом / Mindhunter / Сезон: 2 / Серии: 1-9 из 9 [2019 WEBRip 1080p] DVO [Gears Media] bober100 Скачать
1 | 0


Последний раз редактировалось: killermax2013 (2019-07-29 11:43), всего редактировалось 3 раз(а)

28-11-2019 20:33  

Отключить всю рекламу на сайте

    Дорогой пользователь! Огромная просьба, поблагодарите релизера, оцените раздачу и оставьте свои комментарий, если Вы скачали Охотник за разумом через торрент бесплатно! Внесите свою лепту в развитие PiratBit!
    Комментировать посты могут только пользователи прошедшие не сложную регистрацию
    Показать сообщения:    

    Охотник за разумом через торрент
    Скачать бесплатно Охотник за разумом
    Охотник за разумом скачать торрент
    Охотник за разумом смотреть онлайн
    Cкачать фильм Охотник за разумом бесплатно
    Охотник за разумом скачать торрент в хорошем качестве
    Охотник за разумом смотреть онлайн бесплатно в хорошем качестве


    Вы не можете начинать темы
    Вы не можете отвечать на сообщения
    Вы не можете редактировать свои сообщения
    Вы не можете удалять свои сообщения
    Вы не можете голосовать в опросах
    Вы не можете прикреплять файлы к сообщениям
    Вы можете скачивать файлы