Ссылка на приватное зеркало нашего сайта всего за 1$. Внимание количество ограничено!!!

2 сезон

iTunes

1 сезон

1

2 сезон

2 сезон

iTunes

1 сезон

RePack

30

Новинка

ВАЖНО

ИГРА 18+

pack

RePack

MK11
pack

Забери бонус

RePack

jed

!!Акция!!

Alien_Rage

RePack

fifa19

RePack

Assassins Creed: Odyssey

RePack

NEED FOR SPEED™ PAYBACK

4 сезон

9 сезон

Бесстыжие 9 сезон

Все сериалы

все сериалы на PB.wtf

RePack

FAR CRY 5
  

Мистер Мерседес / Mr. Mercedes / Сезон: 1 / Серии 1-10 из 10 (Джек Бендер) [2017, Триллер, детектив, WEB-DLRip] [MVO] (AlexFilm) pb.wtf

Мистер Мерседес через торрент pb.wtf

Раздают: 1 [ 0 KB/s ]
Размер: 6.16 GB | Добавлен: 3 года 1 мес. назад | Торрент скачан:189 раз
Скачать  

13-08-2017 11:17 Мистер Мерседес Скачать торрент  

Мистер Мерседес / Mr. Mercedes Год выпуска: 2017
Страна: США
Жанр: Триллер, детектив
Продолжительность: ~00:50:00
Перевод: Профессиональный (многоголосый, закадровый) (AlexFilm)

Режиссер: Джек Бендер

В ролях: Брендан Глисон, Джаррель Джером, Гарри Тредэвэй, Келли Линч, Эд Андерсон, Грант Лэйн

Описание: Отставной полицейский Билл Ходжес возвращается к работе, так как ему не дает покоя нераскрытое дело — жестокое убийство восьми человек. Брейди Хартфилд не может забыть пьянящее чувство, когда на угнанном «мерседесе» он врезался в группу ни в чем не повинных людей. Брейди не хочет останавливаться — он уже планирует новое преступление, на этот раз намного более масштабное. Биллу Ходжесу и его команде необходимо опередить его и спасти жизнь уже не десяткам, а сотням людей.

Релиз:

Перевод: Константин Кривоногов
Монтаж и сведение звука: Михаил Шорыгин
Роли озвучивали:Алёна Левичева
Екатерина Муравицкая
Владимир Курдов
Константин Погодаев
Станислав Черсков
Михаил Суслов



Качество: WEB-DLRip
Формат: AVI
Видео: 720x400 (16:9), 30 fps, XviD ~1420 kbps avg, 0.162 bit/pixel
Аудио Rus: 48 kHz, MPEG Layer 3, 2 ch, ~128.00 kbps avg
Аудио Eng: 48 kHz, MPEG Layer 3, 2 ch, ~128.00 kbps avg
Субтитры: нет
скриншот  скриншот  скриншот  
Формат : AVI
Формат/Информация : Audio Video Interleave
Размер файла : 685 Мбайт
Продолжительность : 57 м. 10 с.
Общий поток : 1674 Кбит/сек
Название фильма : Mr. Mercedes 1x01 @ AlexFilm
Программа кодирования : VirtualDubMod 1.5.10.2 (build 2540/release)
Библиотека кодирования : VirtualDubMod build 2540/release

Видео
Идентификатор : 0
Формат : MPEG-4 Visual
Профиль формата : Advanced Simple@L5
Параметр BVOP формата : Нет
Параметр QPel формата : Нет
Параметр GMC формата : Без точки перехода
Параметр матрицы формата : Default (MPEG)
Идентификатор кодека : XVID
Идентификатор кодека/Подсказка : XviD
Продолжительность : 57 м. 10 с.
Битрейт : 1401 Кбит/сек
Ширина : 720 пикселей
Высота : 400 пикселей
Соотношение сторон : 16:9
Частота кадров : 30,000 кадров/сек
Цветовое пространство : YUV
Субдискретизация насыщенности : 4:2:0
Битовая глубина : 8 бит
Тип развёртки : Прогрессивная
Метод сжатия : С потерями
Бит/(Пиксели*Кадры) : 0.162
Размер потока : 573 Мбайт (84%)
Библиотека кодирования : XviD 73

Аудио #1
Идентификатор : 1
Формат : MPEG Audio
Версия формата : Version 1
Профиль формата : Layer 3
Режим : Joint stereo
Идентификатор кодека : 55
Идентификатор кодека/Подсказка : MP3
Продолжительность : 57 м. 10 с.
Вид битрейта : Постоянный
Битрейт : 128 Кбит/сек
Каналы : 2 канала
Частота : 48,0 КГц
Метод сжатия : С потерями
Размер потока : 52,3 Мбайт (8%)
Выравнивание : Соединение по промежуткам
Продолжительность промежутка : 33 мс. (1,00 видеокадр)
Время предзагрузки промежутка : 504 мс.
Заголовок : Russian (AlexFilm)
Библиотека кодирования : LAME3.99r
Настройки программы : -m j -V 4 -q 3 -lowpass 18 -b 128

Аудио #2
Идентификатор : 2
Формат : MPEG Audio
Версия формата : Version 1
Профиль формата : Layer 3
Режим : Joint stereo
Расширение режима : MS Stereo
Идентификатор кодека : 55
Идентификатор кодека/Подсказка : MP3
Продолжительность : 57 м. 10 с.
Вид битрейта : Постоянный
Битрейт : 128 Кбит/сек
Каналы : 2 канала
Частота : 48,0 КГц
Метод сжатия : С потерями
Размер потока : 52,3 Мбайт (8%)
Выравнивание : Соединение по промежуткам
Продолжительность промежутка : 33 мс. (1,00 видеокадр)
Время предзагрузки промежутка : 504 мс.
Заголовок : English
Внимание! Раздача ведётся путём добавления новых серий; при каждом добавлении создаётся новый торрент. Чтобы начать докачку новой серии, пользователям необходимо сделать следующее:
(1) остановить скачивание,
(2) удалить старый торрент у себя из клиента (старые серии удалять не надо),
(3) скачать новый торрент и запустить его у себя в клиенте вместо старого, при этом указать клиенту путь в старую папку куда и должно происходить скачивание новых серий.
Ваш клиент при этом должен произвести хеширование (проверку) старой папки (если не производит сам - помогите ему сделать это), и будет докачивать только те серии которых у вас ещё нет. Старые серии при этом не удаляются, а продолжают раздаваться!
Eсли вы уже удалили старые серии, то предотвратить повторную закачку старых серий можно, отжав галочку в соответствующих местах при запуске нового торрента. По возможности, желательно не удалять старые серии как можно дольше чтобы релизёр не столько продолжал раздавать старые серии, а смог сконцентрироваться на новых.
pb.wtf



Скачать Мистер Мерседес через торрент http://alexfilm.cc/data/pictures/4/97477fb6462c7e82d4ec51a4ea31beb0.png Скачать фильм Мистер Мерседес через торрент бесплантно в хорошем качестве Описание: Отставной полицейский Билл Ходжес возвращается к работе, так как ему не дает покоя нераскрытое дело — жестокое убийство восьми ... 9.2 10 19
Торрент: Зарегистрирован [2017-10-17 08:45] · скачан: 189 раз
Статус: √ проверено
Размер: 6.16 GB
Как cкачать? Как скачать Мистер Мерседес через торрент | qTorrent

% Раздел Тема Автор DL S | L
Зарубежные сериалы [ 6.56 GB ] Мистер Мерседес / Mr. Mercedes / Сезон: 3 / Серии 1-10 из 10 [2019 WEB-DLRip] [MVO] killermax2013 Скачать
1 | 0
Зарубежные сериалы [ 9.45 GB ] Мистер Мерседес / Mr. Mercedes / Сезон: 3 / Серия: 1-10 из 10 [2019 HDTVRip 720p] [MVO] killermax2013 Скачать
1 | 0
Зарубежные сериалы [ 14.66 GB ] Мистер Мерседес / Mr. Mercedes / Сезон: 3 / Серии: 1-10 из 10 [2019 WEB-DL 720p] MVO [Lostfilm] bober100 Скачать
1 | 0
Зарубежные сериалы [ 28.24 GB ] Мистер Мерседес / Mr. Mercedes / Сезон: 3 / Серии: 1-10 из 10 [2019 WEB-DL 1080p] MVO [Jaskier] bober100 Скачать
1 | 0
Зарубежные сериалы [ 30.74 GB ] Мистер Мерседес / Mr. Mercedes / Сезон: 3 / Серии: 1-10 из 10 [2019 WEBRip 1080p] 2xMVO [NewStudio LostFilm] bober100 Скачать
1 | 0
Зарубежные сериалы [ 16.84 GB ] Мистер Мерседес / Mr. Mercedes / Сезон: 3 / Серия: 1-10 из 10 [2019 WEB-DL 720p] 3x[MVO] killermax2013 Скачать
2 | 0
Зарубежные сериалы [ 31.74 GB ] Мистер Мерседес / Mr. Mercedes / Сезон: 3 / Серии: 1-10 из 10 [2019 WEB-DL 1080p] MVO [LostFilm] bober100 Скачать
1 | 0


Последний раз редактировалось: killermax2013 (2017-10-17 08:45), всего редактировалось 5 раз(а)

28-11-2019 20:33  

Отключить всю рекламу на сайте

13-08-2017 12:41 Мистер Мерседес Скачать торрент  

Спасибо,сравню с 11/22/63,может хоть одну экранизацию нормально сделалиpb.wtf



13-08-2017 18:45 Мистер Мерседес Скачать торрент  

D@rkSoul писал(а):

Спасибо,сравню с 11/22/63,может хоть одну экранизацию нормально сделали

Экранизация 11.22.63 выполнена идеально. Сериал раскрывает сюжет в полном объеме.pb.wtf



15-08-2017 16:43 Мистер Мерседес Скачать торрент  

Экранизация 11.22.63 выполнена не идеально. Сериал раскрывает сюжет в неполном объеме.
Экранизация 11.22.63 откровенно плохая, за исключением, пожалуй, первой серии.pb.wtf



02-09-2017 07:11 Мистер Мерседес Скачать торрент  

+2-4pb.wtf



16-09-2017 19:38 Мистер Мерседес Скачать торрент  

+5-6pb.wtf



27-09-2017 17:13 Мистер Мерседес Скачать торрент  

+7pb.wtf



30-09-2017 11:05 Мистер Мерседес Скачать торрент  

+8pb.wtf



17-10-2017 08:45 Мистер Мерседес Скачать торрент  

+9-10pb.wtf



    Дорогой пользователь! Огромная просьба, поблагодарите релизера, оцените раздачу и оставьте свои комментарий, если Вы скачали Мистер Мерседес через торрент бесплатно! Внесите свою лепту в развитие PiratBit!
    Комментировать посты могут только пользователи прошедшие не сложную регистрацию
    Показать сообщения:    

    Мистер Мерседес через торрент
    Скачать бесплатно Мистер Мерседес
    Мистер Мерседес скачать торрент
    Мистер Мерседес смотреть онлайн
    Cкачать фильм Мистер Мерседес бесплатно
    Мистер Мерседес скачать торрент в хорошем качестве
    Мистер Мерседес смотреть онлайн бесплатно в хорошем качестве


    Вы не можете начинать темы
    Вы не можете отвечать на сообщения
    Вы не можете редактировать свои сообщения
    Вы не можете удалять свои сообщения
    Вы не можете голосовать в опросах
    Вы не можете прикреплять файлы к сообщениям
    Вы можете скачивать файлы