2 сезон

iTunes

MVO

1

2 сезон

iTunes

iTunes

1 сезон

RePack

30

Новинка

ВАЖНО

ИГРА 18+

pack

RePack

MK11
pack

Легкие деньги

RePack

jed

RePack

fifa19

RePack

RDR2

RePack

NEED FOR SPEED™ PAYBACK

4 сезон

9 сезон

Бесстыжие 9 сезон

Все сериалы

все сериалы на PB.wtf

RePack

FAR CRY 5

Anonymous, добрый вечер, мы не успеваем собрать деньги на оплату серверов за декабрь и январь, помогите нам пожалуйста в это трудное время. В качестве благодарности мы отключим Вам всю рекламу на сайте (укажите свой ник в строку Ваше имя)!

×
  
Magnet ссылка

Трансформеры: Последний рыцарь / Transformers: The Last Knight (Майкл Бэй) [2017, Фантастика, боевик, триллер, приключения, BDRip-AVC] DUB [Лицензия] pb.wtf

Трансформеры: Последний рыцарь через торрент pb.wtf

Размер: 4.84 GB | Добавлен: 3 года 3 мес. назад | Торрент скачан:173 раза
Скачать  

20-10-2017 05:17 Трансформеры: Последний рыцарь Скачать торрент  

Трансформеры: Последний рыцарь /
Transformers: The Last Knight
Год выпуска: 2017
Страна: США
Жанр: Фантастика, боевик, триллер, приключения
Продолжительность: 02:34:31
Перевод: Дубляж | Лицензия
Субтитры: Русские (форс., полн.), английские (полн., SDH)

Режиссер: Майкл Бэй

rating

В ролях:

Марк Уолберг, Энтони Хопкинс, Джош Дюамель, Лора Хэддок, Сантьяго Кабрера, Изабела Монер, Джеррод Кармайкл, Стэнли Туччи, Лиам Гэрриган, Мартин МакКриди

Описание:

Не столь отдаленное будущее. Оптимус Прайм улетел, но обещал вернуться. Отряды специально обученных людей ловят трансформеров по всему миру и передают тех в секретные лаборатории для бесчеловечных экспериментов. Оставшиеся на свободе сгустки говорящего металла прячутся на свалках и пунктах приема вторсырья. Тем временем выясняется, что к Земле приближается полуразложившаяся планета пришельцев, Мегатрон опять живее всех живых и ищет очередное "оружие возмездия", а российский президент спрятался в подземном бункере. В этих тяжелейших условиях разношерстной команде сборщиков металлического лома, английского лорда и профессора из Оксфорда при поддержке американской военщины необходимо не только предотвратить грядущий апокалипсис, но и устроить личную жизнь.

Качество: BDRip-AVC
Формат: MKV
Видео кодек: H.264
Аудио кодек: AC3

Видео: 1024x540 (1.89:1), 23.976 fps, x264 ~3584 kbps avg, 0.262 bit/pixel
Аудио#1: 48 kHz, AC3 Dolby Digital, 3/2 (L,C,R,l,r) + LFE ch, ~448.00 kbps avg | RUS (Лицензия)
Аудио#2: 48 kHz, AC3 Dolby Digital, 3/2 (L,C,R,l,r) + LFE ch, ~448.00 kbps avg | ENG
скриншот   скриншот   скриншот   скриншот   скриншот   скриншот  

Общее
Уникальный идентификатор : 194450587799190760117039332110250458591 (0x9249D22B6476E70AA785902B4D72BDDF)
Полное имя : E:OlLanDGroupTransformers.The.Last.Knight.2017.BDRip(AVC).OlLanDGroup.mkv
Формат : Matroska
Версия формата : Version 2
Размер файла : 4,84 Гбайт
Продолжительность : 2 ч. 34 м.
Общий поток : 4482 Кбит/сек
Название фильма : Transformers.The.Last.Knight.2017 #TorpedoUK#
Дата кодирования : UTC 2017-10-19 15:57:59
Программа кодирования : mkvmerge v7.8.0 ('River Man') 32bit built on Apr 3 2015 12:11:22
Библиотека кодирования : libebml v1.3.1 + libmatroska v1.4.2

Видео
Идентификатор : 1
Формат : AVC
Формат/Информация : Advanced Video Codec
Профиль формата : High@L4.1
Параметр CABAC формата : Да
Параметр ReFrames формата : 10 кадров
Идентификатор кодека : V_MPEG4/ISO/AVC
Продолжительность : 2 ч. 34 м.
Битрейт : 3584 Кбит/сек
Ширина : 1024 пикселя
Высота : 540 пикселей
Соотношение сторон : 1,896
Режим частоты кадров : Постоянный
Частота кадров : 23,976 (24000/1001) кадра/сек
Цветовое пространство : YUV
Субдискретизация насыщенности : 4:2:0
Битовая глубина : 8 бит
Тип развёртки : Прогрессивная
Бит/(Пиксели*Кадры) : 0.270
Размер потока : 3,78 Гбайт (78%)
Библиотека кодирования : x264 core 146 r2538 121396c
Настройки программы : cabac=1 / ref=10 / deblock=1:-3:-3 / analyse=0x3:0x133 / me=umh / subme=11 / psy=1 / psy_rd=1.00:0.07 / mixed_ref=1 / me_range=48 / chroma_me=1 / trellis=2 / 8x8dct=1 / cqm=0 / deadzone=21,11 / fast_pskip=0 / chroma_qp_offset=-3 / threads=6 / lookahead_threads=1 / sliced_threads=0 / nr=0 / decimate=0 / interlaced=0 / bluray_compat=0 / constrained_intra=0 / bframes=10 / b_pyramid=2 / b_adapt=2 / b_bias=0 / direct=3 / weightb=1 / open_gop=0 / weightp=2 / keyint=240 / keyint_min=23 / scenecut=40 / intra_refresh=0 / rc_lookahead=40 / rc=2pass / mbtree=0 / bitrate=3584 / ratetol=1.0 / qcomp=0.60 / qpmin=0 / qpmax=69 / qpstep=4 / cplxblur=20.0 / qblur=0.5 / vbv_maxrate=50000 / vbv_bufsize=62500 / nal_hrd=none / filler=0 / ip_ratio=1.40 / pb_ratio=1.30 / aq=1:1.00
Язык : English
Default : Да
Forced : Нет

Аудио #1
Идентификатор : 2
Формат : AC-3
Формат/Информация : Audio Coding 3
Расширение режима : CM (complete main)
Параметр Endianness формата : Big
Идентификатор кодека : A_AC3
Продолжительность : 2 ч. 34 м.
Вид битрейта : Постоянный
Битрейт : 448 Кбит/сек
Каналы : 6 каналов
Расположение каналов : Front: L C R, Side: L R, LFE
Частота : 48,0 КГц
Частота кадров : 31,250 кадров/сек (1536 spf)
Битовая глубина : 16 бит
Метод сжатия : С потерями
Размер потока : 496 Мбайт (10%)
Заголовок : License
Язык : Russian
Default : Да
Forced : Нет

Аудио #2
Идентификатор : 3
Формат : AC-3
Формат/Информация : Audio Coding 3
Расширение режима : CM (complete main)
Параметр Endianness формата : Big
Идентификатор кодека : A_AC3
Продолжительность : 2 ч. 34 м.
Вид битрейта : Постоянный
Битрейт : 448 Кбит/сек
Каналы : 6 каналов
Расположение каналов : Front: L C R, Side: L R, LFE
Частота : 48,0 КГц
Частота кадров : 31,250 кадров/сек (1536 spf)
Битовая глубина : 16 бит
Метод сжатия : С потерями
Размер потока : 496 Мбайт (10%)
Заголовок : Original
Язык : English
Default : Нет
Forced : Нет

Текст #1
Идентификатор : 4
Формат : UTF-8
Идентификатор кодека : S_TEXT/UTF8
Идентификатор кодека/Информация : UTF-8 Plain Text
Заголовок : Forced
Язык : Russian
Default : Да
Forced : Нет

Текст #2
Идентификатор : 5
Формат : UTF-8
Идентификатор кодека : S_TEXT/UTF8
Идентификатор кодека/Информация : UTF-8 Plain Text
Заголовок : Full
Язык : Russian
Default : Нет
Forced : Нет

Текст #3
Идентификатор : 6
Формат : UTF-8
Идентификатор кодека : S_TEXT/UTF8
Идентификатор кодека/Информация : UTF-8 Plain Text
Заголовок : Full
Язык : English
Default : Нет
Forced : Нет

Текст #4
Идентификатор : 7
Формат : UTF-8
Идентификатор кодека : S_TEXT/UTF8
Идентификатор кодека/Информация : UTF-8 Plain Text
Заголовок : SDH
Язык : English
Default : Нет
Forced : Нет

Меню
00:00:00.000 : en:Chapter 01
00:06:36.104 : en:Chapter 02
00:14:03.467 : en:Chapter 03
00:21:45.762 : en:Chapter 04
00:27:53.254 : en:Chapter 05
00:33:53.906 : en:Chapter 06
00:40:08.906 : en:Chapter 07
00:46:58.941 : en:Chapter 08
00:53:25.785 : en:Chapter 09
01:02:02.927 : en:Chapter 10
01:08:47.081 : en:Chapter 11
01:14:37.222 : en:Chapter 12
01:20:10.180 : en:Chapter 13
01:29:13.389 : en:Chapter 14
01:37:59.498 : en:Chapter 15
01:44:57.582 : en:Chapter 16
01:51:15.502 : en:Chapter 17
01:57:59.447 : en:Chapter 18
02:06:09.728 : en:Chapter 19
02:10:54.096 : en:Chapter 20
02:16:01.153 : en:Chapter 21
02:21:42.619 : en:Chapter 22
02:25:17.291 : en:Chapter 23
02:34:38.519 : en:Chapter 24

pb.wtf



Скачать Трансформеры: Последний рыцарь через торрент http://lostpix.com/img/2017-09/19/201z3nl1j2ld31zo4jkekpqjw.jpg Скачать фильм Трансформеры: Последний рыцарь через торрент бесплантно в хорошем качестве Описание: Не столь отдаленное будущее. Оптимус Прайм улетел, но обещал вернуться. Отряды специально обученных людей ловят трансформеров по ... 10 10 6
Торрент: Зарегистрирован [2017-10-20 05:17] · скачан: 173 раз
Статус: √ проверено
Размер: 4.84 GB
Как cкачать? Как скачать Трансформеры: Последний рыцарь через торрент | UTorrent

% Раздел Тема Автор DL S | L
Фильмы (HD 720p, 1080p) (48-60 fps) [ 6.71 GB ] Трансформеры: Последний рыцарь / Transformers: The Last Knight [2017 BDRip 720p / 60 FPS ] от R.G. HD-Films slaventi-69 Скачать
1 | 1
Ultra HD (UHD: 2K, 4K, 8K) — видео сверхвысокой чёткости [ 82.97 GB ] Трансформеры: Последний рыцарь / Transformers: The Last Knight [2017 UHD BDRemux 2160p] DUB [] +AVO [А.Гаврилов] bober100 Скачать
2 | 0
Ultra HD (UHD: 2K, 4K, 8K) — видео сверхвысокой чёткости [ 75.28 GB ] Трансформеры: Последний рыцарь / Transformers: The Last Knight [2017 UHD BDRemux EUR 2160p] [IMAX Edition] [Dolby Vision TV] DUB [] bober100 Скачать
1 | 0
Ultra HD (UHD: 2K, 4K, 8K) — видео сверхвысокой чёткости [ 82.97 GB ] Трансформеры: Последний рыцарь / Transformers: The Last Knight [2017 UHD BDRemux 2160p] AVO [А. Гаврилов] +DUB [] bober100 Скачать
1 | 0
Ultra HD (UHD: 2K, 4K, 8K) — видео сверхвысокой чёткости [ 85.7 GB ] Трансформеры: Последний рыцарь / Transformers: The Last Knight [2017 UHD BDRemux EUR 2160p] DUB [Dolby Vision] [] bober100 Скачать
1 | 0
Ultra HD (UHD: 2K, 4K, 8K) — видео сверхвысокой чёткости [ 92.24 GB ] Трансформеры: Последний рыцарь / Transformers: The Last Knight [2017 UHD Blu-ray EUR 2160p] [Dolby Vision] sheker187 Скачать
1 | 0
Фильмы [HD 720p, 1080p] (Хороший звук DUB, MVO) [ 17.59 GB ] Трансформеры: Последний рыцарь / Transformers: The Last Knight [2017 BDRip 1080p] - [] sheker187 Скачать
1 | 0

28-11-2019 20:33  

Отключить всю рекламу на сайте

    Дорогой пользователь! Огромная просьба, поблагодарите релизера, оцените раздачу и оставьте свои комментарий, если Вы скачали Трансформеры: Последний рыцарь через торрент бесплатно! Внесите свою лепту в развитие PiratBit!
    Комментировать посты могут только пользователи прошедшие не сложную регистрацию
    Показать сообщения:    

    Трансформеры: Последний рыцарь через торрент
    Скачать бесплатно Трансформеры: Последний рыцарь
    Трансформеры: Последний рыцарь скачать торрент
    Трансформеры: Последний рыцарь смотреть онлайн
    Cкачать фильм Трансформеры: Последний рыцарь бесплатно
    Трансформеры: Последний рыцарь скачать торрент в хорошем качестве
    Трансформеры: Последний рыцарь смотреть онлайн бесплатно в хорошем качестве


    Вы не можете начинать темы
    Вы не можете отвечать на сообщения
    Вы не можете редактировать свои сообщения
    Вы не можете удалять свои сообщения
    Вы не можете голосовать в опросах
    Вы не можете прикреплять файлы к сообщениям
    Вы можете скачивать файлы