Ссылка на приватное зеркало нашего сайта всего за 1$. Внимание количество ограничено!!!

2 сезон

iTunes

1 сезон

1

iTunes

iTunes

iTunes

1 сезон

RePack

30

ИГРА 18+

pack

ВАЖНО

!!Акция!!

Alien_RageХит недели

RePack

MK11
pack

Забери бонус

RePack

jed

!!Акция!!

Alien_Rage

RePack

fifa19

RePack

Assassins Creed: Odyssey

RePack

NEED FOR SPEED™ PAYBACK

4 сезон

9 сезон

Бесстыжие 9 сезон

Все сериалы

все сериалы на PB.wtf

RePack

FAR CRY 5
  

SuperПерцы (Расширенная версия) / Superbad (Extended Edition) / 2007 (Грег Моттола) [2007, комедия, BDRip 720p by msltel] DUB, DVO, AVO pb.wtf

SuperПерцы через торрент pb.wtf

Размер: 6.75 GB | Добавлен: 3 года назад | Торрент скачан:118 раз
Скачать  

20-10-2017 07:00 SuperПерцы Скачать торрент  

Название: SuperПерцы
Оригинальное название: Superbad
Год выпуска: 2007
Страна: США
Жанр: комедия
Продолжительность: 01:58:40
Перевод: дублированный, профессиональный двухголосый, авторский

Режиссер: Грег Моттола
В ролях: Джона Хилл, Майкл Сера, Кристофер Минц-Плассе, Билл Хэйдер, Сет Роген, Марта МакАйсак, Эмма Стоун, Авива Фарбер, Джо Ло Труглио, Кевин Корригэн, Клемент Блейк, Эрика Виттина Филлипс, Джо Нуньес, Дэйв Франко

О фильме: Сквозь огонь и водку трое приятелей спешат на вечеринку года в честь прощания с девственностью. Как взять на абордаж красотку-одноклассницу, подорвать полицейскую машину и остаться в живых?...



Качество: BDRip 720p
Формат: MKV
Видео: MPEG-4 AVC, 5970 Kбит/с, 1280х694, 23.976 Кбит/с
Аудио 1: русский, AC3, 512 kbps, 6 ch, 48 kHz [дублированный, субтитры на расширенных местах]
Аудио 2: русский, AC3, 640 kbps, 6 ch, 48 kHz [профессиональный двухголосый]
Аудио 3: русский, AC3, 448 kbps, 6 ch, 48 kHz [авторский, Алексей Матвеев]
Аудио 4: английский, AC3, 640 kbps, 6 ch, 48 kHz [оригинал]
Субтитры 1: русские
Субтитры 2: английские
Имеются неименованные главы/чаптеры.
Общее
Уникальный идентификатор : 186397368418656878210749020302378270472 (0x8C3AD3CC8140F8D4ABAD2F3D5597FF08)
Полное имя : D:\Video\SuperПерцы.2007.ExtCut.BDRip.720p by msltel.mkv
Формат : Matroska
Версия формата : Version 4 / Version 2
Размер файла : 6,75 Гбайт
Продолжительность : 1 ч. 58 м.
Общий поток : 8149 Кбит/сек
Название фильма : Rip by msltel
Дата кодирования : UTC 2017-10-20 02:49:26
Программа кодирования : mkvmerge v8.2.0 ('World of Adventure') 64bit
Библиотека кодирования : libebml v1.3.1 + libmatroska v1.4.2

Видео
Идентификатор : 1
Формат : AVC
Формат/Информация : Advanced Video Codec
Профиль формата : High@L4.1
Параметр CABAC формата : Да
Параметр RefFrames формата : 9 кадров
Идентификатор кодека : V_MPEG4/ISO/AVC
Продолжительность : 1 ч. 58 м.
Битрейт : 5970 Кбит/сек
Ширина : 1280 пикселей
Высота : 694 пикселя
Соотношение сторон : 1,85:1
Режим частоты кадров : Постоянный
Частота кадров : 23,976 (24000/1001) кадра/сек
Цветовое пространство : YUV
Субдискретизация насыщенности : 4:2:0
Битовая глубина : 8 бит
Тип развёртки : Прогрессивная
Бит/(Пиксели*Кадры) : 0.280
Размер потока : 4,95 Гбайт (73%)
Библиотека кодирования : x264 core 146 r2538 121396c
Настройки программы : cabac=1 / ref=9 / deblock=1:-3:-2 / analyse=0x3:0x113 / me=umh / subme=11 / psy=1 / psy_rd=1.00:0.15 / mixed_ref=1 / me_range=32 / chroma_me=1 / trellis=2 / 8x8dct=1 / cqm=0 / deadzone=21,11 / fast_pskip=0 / chroma_qp_offset=-3 / threads=6 / lookahead_threads=1 / sliced_threads=0 / nr=0 / decimate=1 / interlaced=0 / bluray_compat=0 / constrained_intra=0 / bframes=7 / b_pyramid=2 / b_adapt=2 / b_bias=0 / direct=1 / weightb=1 / open_gop=0 / weightp=2 / keyint=230 / keyint_min=23 / scenecut=40 / intra_refresh=0 / rc_lookahead=40 / rc=crf / mbtree=0 / crf=18.6 / qcomp=0.60 / qpmin=0 / qpmax=69 / qpstep=4 / vbv_maxrate=62500 / vbv_bufsize=78125 / crf_max=0.0 / nal_hrd=none / filler=0 / ip_ratio=1.40 / pb_ratio=1.30 / aq=1:1.00
Язык : English
Default : Да
Forced : Нет

Аудио #1
Идентификатор : 2
Формат : AC-3
Формат/Информация : Audio Coding 3
Параметр Endianness формата : Big
Идентификатор кодека : A_AC3
Продолжительность : 1 ч. 58 м.
Вид битрейта : Постоянный
Битрейт : 512 Кбит/сек
Каналы : 6 каналов
Расположение каналов : Front: L C R, Side: L R, LFE
Частота : 48,0 КГц
Частота кадров : 31,250 кадров/сек (1536 SPF)
Битовая глубина : 16 бит
Метод сжатия : С потерями
Размер потока : 435 Мбайт (6%)
Заголовок : DUB
Язык : Russian
ServiceKind/String : Complete Main
Default : Да
Forced : Нет

Аудио #2
Идентификатор : 3
Формат : AC-3
Формат/Информация : Audio Coding 3
Параметр Endianness формата : Big
Идентификатор кодека : A_AC3
Продолжительность : 1 ч. 58 м.
Вид битрейта : Постоянный
Битрейт : 640 Кбит/сек
Каналы : 6 каналов
Расположение каналов : Front: L C R, Side: L R, LFE
Частота : 48,0 КГц
Частота кадров : 31,250 кадров/сек (1536 SPF)
Битовая глубина : 16 бит
Метод сжатия : С потерями
Размер потока : 543 Мбайт (8%)
Заголовок : DVO
Язык : Russian
ServiceKind/String : Complete Main
Default : Нет
Forced : Нет

Аудио #3
Идентификатор : 4
Формат : AC-3
Формат/Информация : Audio Coding 3
Параметр Endianness формата : Big
Идентификатор кодека : A_AC3
Продолжительность : 1 ч. 58 м.
Вид битрейта : Постоянный
Битрейт : 384 Кбит/сек
Каналы : 6 каналов
Расположение каналов : Front: L C R, Side: L R, LFE
Частота : 48,0 КГц
Частота кадров : 31,250 кадров/сек (1536 SPF)
Битовая глубина : 16 бит
Метод сжатия : С потерями
Размер потока : 326 Мбайт (5%)
Заголовок : Алексей Матвеев
Язык : Russian
ServiceKind/String : Complete Main
Default : Нет
Forced : Нет

Аудио #4
Идентификатор : 5
Формат : AC-3
Формат/Информация : Audio Coding 3
Параметр Endianness формата : Big
Идентификатор кодека : A_AC3
Продолжительность : 1 ч. 58 м.
Вид битрейта : Постоянный
Битрейт : 640 Кбит/сек
Каналы : 6 каналов
Расположение каналов : Front: L C R, Side: L R, LFE
Частота : 48,0 КГц
Частота кадров : 31,250 кадров/сек (1536 SPF)
Битовая глубина : 16 бит
Метод сжатия : С потерями
Размер потока : 543 Мбайт (8%)
Заголовок : original
Язык : English
ServiceKind/String : Complete Main
Default : Нет
Forced : Нет

Текст #1
Идентификатор : 6
Формат : UTF-8
Идентификатор кодека : S_TEXT/UTF8
Идентификатор кодека/Информация : UTF-8 Plain Text
Продолжительность : 1 ч. 58 м.
Битрейт : 148 бит/сек
ElementCount : 1980
Размер потока : 128 Кбайт (0%)
Заголовок : русские
Язык : Russian
Default : Нет
Forced : Нет

Текст #2
Идентификатор : 7
Формат : UTF-8
Идентификатор кодека : S_TEXT/UTF8
Идентификатор кодека/Информация : UTF-8 Plain Text
Продолжительность : 1 ч. 56 м.
Битрейт : 89 бит/сек
ElementCount : 1940
Размер потока : 76,7 Кбайт (0%)
Заголовок : английские
Язык : English
Default : Нет
Forced : Нет

Меню
00:00:00.000 : :Chapter 01
00:07:43.004 : :Chapter 02
00:17:07.234 : :Chapter 03
00:22:30.390 : :Chapter 04
00:29:28.558 : :Chapter 05
00:33:56.868 : :Chapter 06
00:38:22.925 : :Chapter 07
00:48:06.592 : :Chapter 08
00:54:35.897 : :Chapter 09
01:04:19.272 : :Chapter 10
01:12:03.193 : :Chapter 11
01:20:47.008 : :Chapter 12
01:27:59.232 : :Chapter 13
01:32:27.041 : :Chapter 14
01:37:29.927 : :Chapter 15
01:44:42.276 : :Chapter 16
pb.wtf



Скачать SuperПерцы через торрент http://s019.radikal.ru/i630/1710/ed/63cabf4bf933.jpg Скачать фильм SuperПерцы через торрент бесплантно в хорошем качестве О фильме: Сквозь огонь и водку трое приятелей спешат на вечеринку года в честь прощания с девственностью. Как взять на абордаж ... 8.8 10 8
Info! Золотая раздача, скачанное не засчитывается.
Торрент: Зарегистрирован [2017-10-20 07:00] · скачан: 118 раз
Статус: √ проверено
Размер: 6.75 GB
Как cкачать? Как скачать SuperПерцы через торрент | qTorrent

% Раздел Тема Автор DL S | L
Фильмы [HD 720p, 1080p] (Хороший звук DUB, MVO) [ 17.25 GB ] SuperПерцы / Superbad / 2007 [2007 BDRip 1080p by msltel] DUB DVO AVO msltel Скачать
1 | 1

28-11-2019 20:33  

Отключить всю рекламу на сайте

    Дорогой пользователь! Огромная просьба, поблагодарите релизера, оцените раздачу и оставьте свои комментарий, если Вы скачали SuperПерцы через торрент бесплатно! Внесите свою лепту в развитие PiratBit!
    Комментировать посты могут только пользователи прошедшие не сложную регистрацию
    Показать сообщения:    

    SuperПерцы через торрент
    Скачать бесплатно SuperПерцы
    SuperПерцы скачать торрент
    SuperПерцы смотреть онлайн
    Cкачать фильм SuperПерцы бесплатно
    SuperПерцы скачать торрент в хорошем качестве
    SuperПерцы смотреть онлайн бесплатно в хорошем качестве


    Вы не можете начинать темы
    Вы не можете отвечать на сообщения
    Вы не можете редактировать свои сообщения
    Вы не можете удалять свои сообщения
    Вы не можете голосовать в опросах
    Вы не можете прикреплять файлы к сообщениям
    Вы можете скачивать файлы