MEGA SALE -50% FORZA HORIZON 4 ULTIMATE+ВСЕ DLC+ОНЛАЙН всего за 599р. 299 руб. (супер цена). Внимание количество ограничено!!!

iTunes

1+1

iTunes

мы

iTunes

1

iTunes

Чернобыль

iTunes

Ральф против интернета

Лицензия

ПШазам

Лицензия

Игра престолов

Лицензия

30
pack

ВАЖНО

!!Акция!!

Alien_RageХит недели

RePack

Resident Evil 21

ИГРА 18+

pack

RePack

Metro:Exodus

!!Акция!!

Alien_Rage

RePack

fifa19

RePack

Assassins Creed: Odyssey

RePack

NEED FOR SPEED™ PAYBACK

3 сезон

9 сезон

Бесстыжие 9 сезон

Все сериалы

все сериалы на PB.wtf

RePack

FAR CRY 5
Ребята, катастрофически не хватает 7730р. для оплаты серверов за ИЮЛЬ (всвязи с блокировками трафик упал в 3 раза), 1-2р., выручайте.
  

Неудачники / Micmacs a tire-larigot (Жан-Пьер Жене) [2009 г., Комедия, криминал, BDRip-AVC] DUB pb.wtf

Неудачники через торрент pb.wtf

Раздают: 1 [ 0 KB/s ]
Размер: 2.74 GB | Добавлен: 1 год 10 мес. назад | Торрент скачан:86 раз
Скачать  

20-10-2017 17:47 Неудачники Скачать торрент  

Неудачники / Micmacs a tire-larigot
Год выпуска: 2009
Страна: Франция
Жанр: Комедия, криминал
Продолжительность: 01:44:15
Перевод: Дубляж
Субтитры: Русские, английские

Режиссер: Жан-Пьер Жене

Бюджет: $42 000 000
Премьера в мире: 15 сентября 2009

rating

В ролях: Дани Бун, Андре Дюссолье, Николас Мари, Жан-Пьер Марьель, Йоланда Моро, Жюли Ферье, Омар Сю, Доминик Пинон, Урбен Канселье, Патрик Пару, Жан-Пьер Бекер, Эрик Наггар, Арсен Моска, Доминик Беттенфельд, Жак Эрлен

Описание: Базилю не везет по жизни. То он чуть не погибает от шальной пули, то становится бездомным, то однажды с такими же «счастливчиками» как и он сам не начинает бороться за справедливость. И с кем бороться — с крупнейшими в стране производителями оружия. Но, кто знает, может на этот раз удача улыбнется ему?

Качество: BDRip-AVC
Формат: MKV
Видео кодек: x264
Видео: MPEG-4 AVC, 2862 Кбит/с, 1024x428, 23.976 кадр/с
Аудио#1: AC3, 6 ch, 448 Кбит/с | Русский
Аудио#2: AC3, 6 ch, 448 Кбит/с | Французский
Релиз от: Koenig
Общее
Уникальный идентификатор : 249572737682584063924773952775837023049 (0xBBC1F5FC44AFFA839AE206B883017B49)
Полное имя : Micmacs.а.tire-larigot.2009.BDRip-AVC.mkv
Формат : Matroska
Версия формата : Version 4 / Version 2
Размер файла : 2,74 Гбайт
Продолжительность : 1 ч. 44 м.
Общий поток : 3758 Кбит/сек
Название фильма : Micmacs.а.tire-larigot.2009.BDRip-AVC by Koenig
Дата кодирования : UTC 2017-10-18 06:23:24
Программа кодирования : mkvmerge v12.0.0 ('Trust / Lust') 32bit
Библиотека кодирования : libebml v1.3.4 + libmatroska v1.4.5
Обложка : Yes
Attachments : cover.jpg

Видео
Идентификатор : 1
Формат : AVC
Формат/Информация : Advanced Video Codec
Профиль формата : High@L4.1
Параметр CABAC формата : Да
Параметр ReFrames формата : 9 кадров
Идентификатор кодека : V_MPEG4/ISO/AVC
Продолжительность : 1 ч. 44 м.
Битрейт : 2862 Кбит/сек
Ширина : 1024 пикселя
Высота : 428 пикселей
Соотношение сторон : 2,40:1
Режим частоты кадров : Постоянный
Частота кадров : 23,976 (24000/1001) кадра/сек
Цветовое пространство : YUV
Субдискретизация насыщенности : 4:2:0
Битовая глубина : 8 бит
Тип развёртки : Прогрессивная
Бит/(Пиксели*Кадры) : 0.272
Размер потока : 2,08 Гбайт (76%)
Заголовок : Micmacs.а.tire-larigot.2009
Библиотека кодирования : x264 core 148 r2744 b97ae06
Настройки программы : cabac=1 / ref=9 / deblock=1:-3:-3 / analyse=0x3:0x133 / me=umh / subme=10 / psy=1 / psy_rd=1.05:0.10 / mixed_ref=1 / me_range=32 / chroma_me=1 / trellis=2 / 8x8dct=1 / cqm=0 / deadzone=21,11 / fast_pskip=0 / chroma_qp_offset=-3 / threads=3 / lookahead_threads=1 / sliced_threads=0 / nr=0 / decimate=1 / interlaced=0 / bluray_compat=0 / constrained_intra=0 / bframes=11 / b_pyramid=2 / b_adapt=2 / b_bias=0 / direct=3 / weightb=1 / open_gop=0 / weightp=2 / keyint=240 / keyint_min=23 / scenecut=40 / intra_refresh=0 / rc_lookahead=40 / rc=2pass / mbtree=1 / bitrate=2862 / ratetol=1.0 / qcomp=0.60 / qpmin=10 / qpmax=51 / qpstep=4 / cplxblur=20.0 / qblur=0.5 / vbv_maxrate=50000 / vbv_bufsize=62500 / nal_hrd=none / filler=0 / ip_ratio=1.40 / aq=1:1.00
Язык : French
Default : Да
Forced : Нет

Аудио #1
Идентификатор : 2
Формат : AC-3
Формат/Информация : Audio Coding 3
Параметр Endianness формата : Big
Идентификатор кодека : A_AC3
Продолжительность : 1 ч. 44 м.
Вид битрейта : Постоянный
Битрейт : 448 Кбит/сек
Каналы : 6 каналов
Расположение каналов : Front: L C R, Side: L R, LFE
Частота : 48,0 КГц
Частота кадров : 31,250 кадров/сек (1536 spf)
Битовая глубина : 16 бит
Метод сжатия : С потерями
Размер потока : 334 Мбайт (12%)
Заголовок : DUB
Язык : Russian
ServiceKind/String : Complete Main
Default : Да
Forced : Нет

Аудио #2
Идентификатор : 3
Формат : AC-3
Формат/Информация : Audio Coding 3
Параметр Endianness формата : Big
Идентификатор кодека : A_AC3
Продолжительность : 1 ч. 44 м.
Вид битрейта : Постоянный
Битрейт : 448 Кбит/сек
Каналы : 6 каналов
Расположение каналов : Front: L C R, Side: L R, LFE
Частота : 48,0 КГц
Частота кадров : 31,250 кадров/сек (1536 spf)
Битовая глубина : 16 бит
Метод сжатия : С потерями
Размер потока : 334 Мбайт (12%)
Заголовок : Original
Язык : French
ServiceKind/String : Complete Main
Default : Нет
Forced : Нет

Текст #1
Идентификатор : 4
Формат : UTF-8
Идентификатор кодека : S_TEXT/UTF8
Идентификатор кодека/Информация : UTF-8 Plain Text
Продолжительность : 1 ч. 39 м.
Битрейт : 62 бит/сек
ElementCount : 883
Размер потока : 45,9 Кбайт (0%)
Язык : Russian
Default : Да
Forced : Нет

Текст #2
Идентификатор : 5
Формат : UTF-8
Идентификатор кодека : S_TEXT/UTF8
Идентификатор кодека/Информация : UTF-8 Plain Text
Продолжительность : 1 ч. 37 м.
Битрейт : 35 бит/сек
ElementCount : 889
Размер потока : 25,1 Кбайт (0%)
Язык : English
Default : Нет
Forced : Нет

Меню
00:00:00.000 : en:
00:10:32.673 : en:
00:19:22.161 : en:
00:28:44.431 : en:
00:37:16.108 : en:
00:44:44.264 : en:
00:53:06.850 : en:
01:02:48.347 : en:
01:12:37.061 : en:
01:20:07.344 : en:
01:30:51.154 : en:
01:40:14.383 : en:
01:44:15.040 : en:

pb.wtf



Скачать Неудачники через торрент http://pic1.kartinco.top/images/11/5uopp.jpg Скачать фильм Неудачники через торрент бесплантно в хорошем качестве Описание: Базилю не везет по жизни. То он чуть не погибает от шальной пули, то становится бездомным, то однажды с такими же ... 5 10 1
Торрент: Зарегистрирован [2017-10-20 17:47] · скачан: 86 раз
Статус: √ проверено
Размер: 2.74 GB
Как cкачать? Как скачать Неудачники через торрент | qTorrent

% Раздел Тема Автор DL S | L
Фильмы [HD 720p, 1080p] (Хороший звук DUB, MVO) [ 3.72 GB ] Неудачники / Micmacs a tire-larigot [2009 BDRip 720p by msltel] DUB msltel Скачать
1 | 0
Фильмы [HD 720p, 1080p] (Хороший звук DUB, MVO) [ 10.41 GB ] Неудачники / Micmacs a tire-larigot [2009 BDRip 1080p by msltel] DUB msltel Скачать
1 | 0


>> Регистрируемся здесь <<






Отзывы и комментарии о схеме читаем и пишем здесь: ---> Отзывы и комментарии о схеме

Новые благодарочки в телеграм довольных пользователей:
скриншот   скриншот   скриншот   скриншот   скриншот
    Дорогой пользователь! Огромная просьба, поблагодарите релизера, оцените раздачу и оставьте свои комментарий, если Вы скачали Неудачники через торрент бесплатно! Внесите свою лепту в развитие PiratBit!
    Комментировать посты могут только пользователи прошедшие не сложную регистрацию
    Показать сообщения:    

    Неудачники через торрент
    Скачать бесплатно Неудачники
    Неудачники скачать торрент
    Неудачники смотреть онлайн
    Cкачать фильм Неудачники бесплатно
    Неудачники скачать торрент в хорошем качестве
    Неудачники смотреть онлайн бесплатно в хорошем качестве


    Вы не можете начинать темы
    Вы не можете отвечать на сообщения
    Вы не можете редактировать свои сообщения
    Вы не можете удалять свои сообщения
    Вы не можете голосовать в опросах
    Вы не можете прикреплять файлы к сообщениям
    Вы можете скачивать файлы