Ссылка на приватное зеркало всего за 1$. Внимание количество ограничено!!!

iTunes

iTunes

iTunes

1

iTunes

iTunes

iTunes

iTunes

iTunes

30
pack

$ от Little Big

ВАЖНО

!!Акция!!

Alien_RageХит недели

RePack

Resident Evil 21

ИГРА 18+

pack

RePack

jed

!!Акция!!

Alien_Rage

RePack

fifa19

RePack

Assassins Creed: Odyssey

RePack

NEED FOR SPEED™ PAYBACK

4 сезон

9 сезон

Бесстыжие 9 сезон

Все сериалы

все сериалы на PB.wtf

RePack

FAR CRY 5
  

Ветреная река / Wind River (Гари Роач) [2017, боевик, триллер, криминал, детектив, WEB-DL 1080p] [DUB] [Лицензия / iTunes] pb.wtf

Ветреная река через торрент pb.wtf

Размер: 3.94 GB | Добавлен: 2 года 8 мес. назад | Торрент скачан:1500 раз
Скачать  

20-10-2017 20:30 Ветреная река Скачать торрент  

Ветреная река / Wind River
Год выпуска: 2017
Жанр: боевик, триллер, криминал, детектив
Страна: Великобритания, Канада, США
Продолжительность:01:46:57
Озвучивание: Дубляж [Лицензия / iTunes]
Субтитры: нет

Режиссёр: Гари Роач

В ролях: Джереми Реннер, Элизабет Олсен, Джон Бернтал, Келси Чоу, Джулия Джонс, Тео Брионес, Апесанахкват, Грэм Грин, Танту Кардинал, Эрик Ланж

Описание: В пустыне на территории индейской резервации «Ветреная река» егерь Кори Ламберт находит изувеченное тело молодой девушки. Опытный охотник с трагическим прошлым, он берется помочь в расследовании этого дела агенту ФБР Джейн Бэннер, которая оказывается в мире, полном загадок и насилия. Но смогут ли они противостоять зловещим силам этих мест, где сама природа пропитана горечью и жаждой мщения?..



Качество: WEB-DL [1080p]
Формат: MKV
Видео: AVC, 1912x800, 24.000 fps, ~ 4509 kbps avg
Аудио: 48 kHz, AC3, 6 ch, ~ 384 kbps - DUB
Аудио: 48 kHz, AC3, 6 ch, ~ 384 kbps - ENG
General
Unique ID : 250956290474307863518784018612371449301 (0xBCCC6C67976D85CB8DDFE6667C69E5D5)
Complete name : E:\Wind River 2017.WEB-DL.1080p.ExKinoRay.mkv
Format : Matroska
Format version : Version 4 / Version 2
File size : 3.94 GiB
Duration : 1 h 46 min
Overall bit rate : 5 279 kb/s
Encoded date : UTC 2017-10-20 20:06:13
Writing application : mkvmerge v17.0.0 ('Be Ur Friend') 64-bit
Writing library : libebml v1.3.5 + libmatroska v1.4.8

Video
ID : 1
Format : AVC
Format/Info : Advanced Video Codec
Format profile : High@L4
Format settings : CABAC / 5 Ref Frames
Format settings, CABAC : Yes
Format settings, RefFrames : 5 frames
Codec ID : V_MPEG4/ISO/AVC
Duration : 1 h 46 min
Bit rate : 4 406 kb/s
Width : 1 912 pixels
Height : 800 pixels
Display aspect ratio : 2.40:1
Frame rate mode : Constant
Frame rate : 24.000 FPS
Color space : YUV
Chroma subsampling : 4:2:0
Bit depth : 8 bits
Scan type : Progressive
Bits/(Pixel*Frame) : 0.120
Stream size : 3.29 GiB (83%)
Language : English
Default : Yes
Forced : No
Color range : Limited
Color primaries : BT.709
Transfer characteristics : BT.709
Matrix coefficients : BT.709

Audio #1
ID : 2
Format : AC-3
Format/Info : Audio Coding 3
Format settings, Endianness : Big
Codec ID : A_AC3
Duration : 1 h 46 min
Bit rate mode : Constant
Bit rate : 384 kb/s
Channel(s) : 6 channels
Channel positions : Front: L C R, Side: L R, LFE
Sampling rate : 48.0 kHz
Frame rate : 31.250 FPS (1536 SPF)
Bit depth : 16 bits
Compression mode : Lossy
Stream size : 294 MiB (7%)
Title : iTunes
Language : Russian
Service kind : Complete Main
Default : Yes
Forced : No

Audio #2
ID : 3
Format : AC-3
Format/Info : Audio Coding 3
Format settings, Endianness : Big
Codec ID : A_AC3
Duration : 1 h 46 min
Bit rate mode : Constant
Bit rate : 384 kb/s
Channel(s) : 6 channels
Channel positions : Front: L C R, Side: L R, LFE
Sampling rate : 48.0 kHz
Frame rate : 31.250 FPS (1536 SPF)
Bit depth : 16 bits
Compression mode : Lossy
Stream size : 294 MiB (7%)
Title : Original
Language : English
Service kind : Complete Main
Default : No
Forced : No

Menu
00:00:00.000 : en:1
00:03:19.000 : en:2
00:11:06.000 : en:3
00:19:35.000 : en:4
00:30:11.000 : en:5
00:37:36.000 : en:6
00:45:58.000 : en:7
00:52:39.000 : en:8
01:02:05.000 : en:9
01:11:18.000 : en:10
01:24:05.000 : en:11
01:31:19.000 : en:12
01:40:27.000 : en:13
pb.wtf



Скачать Ветреная река через торрент http://i91.fastpic.ru/big/2017/0928/93/af4e74d1bfb1f2a3c440118a4c68d593.jpg Скачать фильм Ветреная река через торрент бесплантно в хорошем качестве Описание: В пустыне на территории индейской резервации «Ветреная река» егерь Кори Ламберт находит изувеченное тело молодой девушки. Опытный ... 9.8 10 25
Info! Золотая раздача, скачанное не засчитывается.
Торрент: Зарегистрирован [2017-10-20 20:30] · скачан: 1 500 раз
Статус: √ проверено
Размер: 3.94 GB
Как cкачать? Как скачать Ветреная река через торрент | qTorrent

% Раздел Тема Автор DL S | L
Фильмы (Blu-ray, BD-Remux, HDDVD) [ 27.49 GB ] Ветреная река / Wind River [2016 BDRemux 1080p] DUB [] + AVO [Гаврилов] sheker187 Скачать
1 | 0
Фильмы с авторской озвучкой [ 1.72 GB ] Ветреная река / Wind River [2017 HDRip-AVC] [AVO] killermax2013 Скачать
1 | 0
Фильмы [HD 720p, 1080p] (Хороший звук DUB, MVO) [ 9.38 GB ] Ветреная река / Wind River [2017 BDRip 1080p] DUB [] bober100 Скачать
1 | 0
Фильмы 2017 [DVDrip, WEB-DLRip, HDrip] (DUB, MVO) [ 2.1 GB ] Ветреная река / Wind River [2017 HDRip-AVC] [] - ExKinoRay Enigma2010 Скачать
2 | 0
Фильмы [HD 720p, 1080p] (Хороший звук DUB, MVO) [ 6.71 GB ] Ветреная река / Wind River [2017 BDRip 720p] DUB [] bober100 Скачать
1 | 0
Фильмы (Blu-ray, BD-Remux, HDDVD) [ 19.52 GB ] Ветреная река / Wind River [2017 Blu-ray 1080p] [Rus Transfer] DUB [] bober100 Скачать
1 | 0
Фильмы (Blu-ray, BD-Remux, HDDVD) [ 25.59 GB ] Ветреная река / Wind River [2017 BD Remux 1080p] [US Transfer] DUB [] bober100 Скачать
1 | 0

28-11-2019 20:33  

Отключить всю рекламу на сайте

21-10-2017 15:43 Ветреная река Скачать торрент  

Фильм очень понравилсяpb.wtf



21-10-2017 20:18 Ветреная река Скачать торрент  

описание фильма вообще не в тему, хороший ровный детективчик, посмотрел с удовольствиемpb.wtf



22-10-2017 01:21 Ветреная река Скачать торрент  

хорошее кино.спасибо.pb.wtf



22-10-2017 13:19 Ветреная река Скачать торрент  

немного тривиальное, но зато без надуманостей и прозаично. Хороший фильм. Спасибо.pb.wtf



14-11-2017 17:09 Ветреная река Скачать торрент  

Раз можно посмотреть. Фильм неплохой. Но без какого либо экшена.pb.wtf



03-12-2017 19:01 Ветреная река Скачать торрент  

норм. фильм. pb.wtf



09-12-2017 17:47 Ветреная река Скачать торрент  

Очень достойный фильм.pb.wtf



    Дорогой пользователь! Огромная просьба, поблагодарите релизера, оцените раздачу и оставьте свои комментарий, если Вы скачали Ветреная река через торрент бесплатно! Внесите свою лепту в развитие PiratBit!
    Комментировать посты могут только пользователи прошедшие не сложную регистрацию
    Показать сообщения:    

    Ветреная река через торрент
    Скачать бесплатно Ветреная река
    Ветреная река скачать торрент
    Ветреная река смотреть онлайн
    Cкачать фильм Ветреная река бесплатно
    Ветреная река скачать торрент в хорошем качестве
    Ветреная река смотреть онлайн бесплатно в хорошем качестве


    Вы не можете начинать темы
    Вы не можете отвечать на сообщения
    Вы не можете редактировать свои сообщения
    Вы не можете удалять свои сообщения
    Вы не можете голосовать в опросах
    Вы не можете прикреплять файлы к сообщениям
    Вы можете скачивать файлы