2 сезон

iTunes

MVO

1

2 сезон

iTunes

iTunes

1 сезон

RePack

30

Ultimate

ВАЖНО

ИГРА 18+

pack

RePack

MK11
pack

Легкие деньги

RePack

jed

RePack

fifa19

RePack

RDR2

RePack

NEED FOR SPEED™ PAYBACK

4 сезон

9 сезон

Бесстыжие 9 сезон

Все сериалы

все сериалы на PB.wtf

RePack

FAR CRY 5

Anonymous, доброй ночи, мы не успеваем собрать деньги на оплату серверов за декабрь и январь, помогите нам пожалуйста в это трудное время. В качестве благодарности мы отключим Вам всю рекламу на сайте (укажите свой ник в строку Ваше имя)!

×
  
Magnet ссылка

Проклятие Аннабель: Зарождение зла / Annabelle: Creation (Дэвид Ф. Сандберг) [2017, ужасы, триллер, детектив, BDRip-AVC] [DUB] [Лицензия] - ExKinoRay pb.wtf

Проклятие Аннабель: Зарождение зла через торрент pb.wtf

Размер: 1.81 GB | Добавлен: 3 года 2 мес. назад | Торрент скачан:102 раза
Скачать  

21-10-2017 02:15 Проклятие Аннабель: Зарождение зла Скачать торрент  

Информация о фильме
Название: Проклятие Аннабель: Зарождение зла
Оригинальное название: Annabelle: Creation
Год выхода: 2017
Жанр: Ужасы, триллер, детектив
Страна: США
Студия: Atomic Monster, New Line Cinema
Продолжительность: 01:49:43
Перевод: Дублированный | Лицензия
Субтитры: Русские (форсированные, полные), английские
Режиссер: Дэвид Ф. Сандберг
В ролях: Стефани Сигман, Миранда Отто, Лулу Уилсон, Энтони ЛаПалья, Талита Бейтман, Алисия Вела-Бэйли, Керри О Мэлли, Филиппа Култхард, Джозеф Бишара, Адам Бартли

Описание:
Кукольный мастер, чья единственная дочь трагически погибла 20 лет назад, вместе с женой решают открыть двери своего дома для монахини и нескольких девочек из закрытого сиротского приюта. Но одержимое создание кукольника – Аннабель – пристально наблюдает за детьми и вскоре накрывает их убежище ураганом ужаса и страха.

rating

Файл
Формат: MKV
Качество: BDRip-AVC
Видео: MPEG-4 AVC, 1024x426 (2.40:1), 1465 Kbit/s, 23.976 fps, 0,140 bpp
Звук:
Аудио 1: 48 kHz, AC3, 5.1 ch, 448 Kbps | RUS
Аудио 2: 48 kHz, AC3, 5.1 ch, 448 Kbps | ENG

Навигация по главам: есть
General
Unique ID : 235183533170187204543970503255433218674 (0xB0EEB36DEA54C128A46D36E301110A72)
Complete name : D:\Annabelle.Creation.2017.D.BDRip.AVC.ExKinoRay.mkv
Format : Matroska
Format version : Version 2
File size : 1.81 GiB
Duration : 1 h 49 min
Overall bit rate : 2 363 kb/s
Movie name : Annabelle Creation 2017 from ExKinoRay
Encoded date : UTC 2017-11-16 22:39:09
Writing application : mkvmerge v5.6.0 ('Kenya Kane') built on May 27 2012 16:44:04
Writing library : libebml v1.2.3 + libmatroska v1.3.0

Video
ID : 1
Format : AVC
Format/Info : Advanced Video Codec
Format profile : High@L4.1
Format settings, CABAC : Yes
Format settings, ReFrames : 11 frames
Codec ID : V_MPEG4/ISO/AVC
Duration : 1 h 49 min
Bit rate : 1 465 kb/s
Width : 1 024 pixels
Height : 426 pixels
Display aspect ratio : 2.40:1
Frame rate mode : Constant
Frame rate : 23.976 (23976/1000) FPS
Color space : YUV
Chroma subsampling : 4:2:0
Bit depth : 8 bits
Scan type : Progressive
Bits/(Pixel*Frame) : 0.140
Stream size : 1.09 GiB (60%)
Title : Enigma
Writing library : x264 core 152 r2851 ba24899
Encoding settings : cabac=1 / ref=11 / deblock=1:-2:-2 / analyse=0x3:0x113 / me=umh / subme=10 / psy=1 / psy_rd=1.05:0.10 / mixed_ref=1 / me_range=32 / chroma_me=1 / trellis=2 / 8x8dct=1 / cqm=0 / deadzone=21,11 / fast_pskip=1 / chroma_qp_offset=-3 / threads=12 / lookahead_threads=3 / sliced_threads=0 / nr=0 / decimate=0 / interlaced=0 / bluray_compat=0 / constrained_intra=0 / bframes=12 / b_pyramid=2 / b_adapt=2 / b_bias=0 / direct=3 / weightb=1 / open_gop=0 / weightp=2 / keyint=240 / keyint_min=23 / scenecut=40 / intra_refresh=0 / rc_lookahead=40 / rc=2pass / mbtree=0 / bitrate=1465 / ratetol=1.0 / qcomp=0.60 / qpmin=0 / qpmax=51 / qpstep=4 / cplxblur=20.0 / qblur=0.5 / vbv_maxrate=50000 / vbv_bufsize=62500 / nal_hrd=none / filler=0 / ip_ratio=1.40 / pb_ratio=1.30 / aq=1:1.00
Language : English
Default : Yes
Forced : No
Color range : Limited
Color primaries : BT.709
Transfer characteristics : BT.709
Matrix coefficients : BT.709

Audio #1
ID : 2
Format : AC-3
Format/Info : Audio Coding 3
Mode extension : CM (complete main)
Format settings, Endianness : Big
Codec ID : A_AC3
Duration : 1 h 49 min
Bit rate mode : Constant
Bit rate : 448 kb/s
Channel(s) : 6 channels
Channel positions : Front: L C R, Side: L R, LFE
Sampling rate : 48.0 kHz
Frame rate : 31.250 FPS (1536 spf)
Compression mode : Lossy
Stream size : 352 MiB (19%)
Title : Dub (Лицензия)
Language : Russian
Default : Yes
Forced : No

Audio #2
ID : 3
Format : AC-3
Format/Info : Audio Coding 3
Mode extension : CM (complete main)
Format settings, Endianness : Big
Codec ID : A_AC3
Duration : 1 h 49 min
Bit rate mode : Constant
Bit rate : 448 kb/s
Channel(s) : 6 channels
Channel positions : Front: L C R, Side: L R, LFE
Sampling rate : 48.0 kHz
Frame rate : 31.250 FPS (1536 spf)
Compression mode : Lossy
Stream size : 352 MiB (19%)
Language : English
Default : No
Forced : No

Text #1
ID : 4
Format : UTF-8
Codec ID : S_TEXT/UTF8
Codec ID/Info : UTF-8 Plain Text
Title : Forced
Language : Russian
Default : Yes
Forced : No

Text #2
ID : 5
Format : UTF-8
Codec ID : S_TEXT/UTF8
Codec ID/Info : UTF-8 Plain Text
Title : Full
Language : Russian
Default : No
Forced : No

Text #3
ID : 6
Format : UTF-8
Codec ID : S_TEXT/UTF8
Codec ID/Info : UTF-8 Plain Text
Title : Full
Language : English
Default : No
Forced : No

Text #4
ID : 7
Format : UTF-8
Codec ID : S_TEXT/UTF8
Codec ID/Info : UTF-8 Plain Text
Title : SDH (Colored)
Language : English
Default : No
Forced : No

Text #5
ID : 8
Format : UTF-8
Codec ID : S_TEXT/UTF8
Codec ID/Info : UTF-8 Plain Text
Title : SDH
Language : English
Default : No
Forced : No

Menu
00:00:00.000 : en:Chapter 01
00:11:25.351 : en:Chapter 02
00:20:35.067 : en:Chapter 03
00:30:33.289 : en:Chapter 04
00:42:03.604 : en:Chapter 05
00:52:39.239 : en:Chapter 06
01:03:12.497 : en:Chapter 07
01:13:14.681 : en:Chapter 08
01:23:55.613 : en:Chapter 09
01:33:19.302 : en:Chapter 10
01:43:27.618 : en:Chapter 11
Релиз от:

Автор релиза: pb.wtf



Скачать Проклятие Аннабель: Зарождение зла через торрент http://i91.fastpic.ru/big/2017/1020/6e/624c044d680e4459304930002844bc6e.jpg Скачать фильм Проклятие Аннабель: Зарождение зла через торрент бесплантно в хорошем качестве Описание:Кукольный мастер, чья единственная дочь трагически погибла 20 лет назад, вместе с женой решают открыть двери своего дома для ... 8.9 10 15
Info! Золотая раздача, скачанное не засчитывается.
Торрент: Зарегистрирован [2017-11-16 23:04] · скачан: 102 раз
Статус: √ проверено
Размер: 1.81 GB
Как cкачать? Как скачать Проклятие Аннабель: Зарождение зла через торрент | UTorrent



Последний раз редактировалось: Enigma2010 (2017-11-16 23:04), всего редактировалось 2 раз(а)

28-11-2019 20:33  

Отключить всю рекламу на сайте

23-10-2017 13:24 Проклятие Аннабель: Зарождение зла Скачать торрент  

фильм нудный, как и все подобные фильмы, до которых мы привыкли - они уже совсем не пугающие. а если фыильм ужасов не страшный то он автоматически становится ужасно нудным.
Плюс за качество фильма, и плюс - все роли это женский состав, что более радует глаз
за качество - 9 из 10
за фильм ужасов, триллер - 2 из 10 pb.wtf



16-11-2017 23:04 Проклятие Аннабель: Зарождение зла Скачать торрент  

Замена на лицензию.pb.wtf



    Дорогой пользователь! Огромная просьба, поблагодарите релизера, оцените раздачу и оставьте свои комментарий, если Вы скачали Проклятие Аннабель: Зарождение зла через торрент бесплатно! Внесите свою лепту в развитие PiratBit!
    Комментировать посты могут только пользователи прошедшие не сложную регистрацию
    Показать сообщения:    

    Проклятие Аннабель: Зарождение зла через торрент
    Скачать бесплатно Проклятие Аннабель: Зарождение зла
    Проклятие Аннабель: Зарождение зла скачать торрент
    Проклятие Аннабель: Зарождение зла смотреть онлайн
    Cкачать фильм Проклятие Аннабель: Зарождение зла бесплатно
    Проклятие Аннабель: Зарождение зла скачать торрент в хорошем качестве
    Проклятие Аннабель: Зарождение зла смотреть онлайн бесплатно в хорошем качестве


    Вы не можете начинать темы
    Вы не можете отвечать на сообщения
    Вы не можете редактировать свои сообщения
    Вы не можете удалять свои сообщения
    Вы не можете голосовать в опросах
    Вы не можете прикреплять файлы к сообщениям
    Вы можете скачивать файлы