2 сезон

iTunes

MVO

1

2 сезон

iTunes

iTunes

1 сезон

RePack

30

Ultimate

ВАЖНО

ИГРА 18+

pack

RePack

MK11
pack

Легкие деньги

RePack

jed

RePack

fifa19

RePack

RDR2

RePack

NEED FOR SPEED™ PAYBACK

4 сезон

9 сезон

Бесстыжие 9 сезон

Все сериалы

все сериалы на PB.wtf

RePack

FAR CRY 5

Anonymous, доброй ночи, мы не успеваем собрать деньги на оплату серверов за декабрь и январь, помогите нам пожалуйста в это трудное время. В качестве благодарности мы отключим Вам всю рекламу на сайте (укажите свой ник в строку Ваше имя)!

×
  
Magnet ссылка

Проклятие Аннабель: Зарождение зла / Annabelle: Creation (Дэвид Ф. Сандберг) [2017, ужасы, триллер, детектив, BDRip] Дубляж - [Лицензия / iTunes] pb.wtf

Проклятие Аннабель: Зарождение зла через торрент pb.wtf

Размер: 745 MB | Добавлен: 3 года 2 мес. назад | Торрент скачан:113 раз
Скачать  

21-10-2017 03:14 Проклятие Аннабель: Зарождение зла Скачать торрент  

Проклятие Аннабель: Зарождение зла / Annabelle: Creation«Новый ужас вселенной 'Заклятия'»
Год выпуска: 2017
Страна: США
Жанр: ужасы, триллер, детектив
Продолжительность: 01:49:43
Перевод: Дубляж - [Лицензия / iTunes]
Субтитры: Русские форсированные (отдельно)
Режиссер: Дэвид Ф. Сандберг
В ролях:

Энтони ЛаПалья (Samuel Mullins), Самара Ли (Bee), Миранда Отто (Esther Mullins), Брэд Гринквист (Victor Palmeri), Лулу Уилсон (Linda), Талита Бейтман (Janice), Стефани Сигман (Sister Charlotte), Марк Брэмхолл (Father Massey), Грэйс Фултон (Carol), Филиппа Култхард (Nancy), Тайлер Бак (Kate), Lou Lou Safran (Tierney)
Описание:
Через несколько лет после трагической гибели маленькой дочери кукольник и его жена приглашают в свой дом монахиню и нескольких девочек из приюта, вскоре становящихся мишенью для одержимого создания кукольника - Аннабель.
Рейтинг:

MPAA: R - Лицам до 17 лет обязательно присутствие взрослого
Качество: BDRip
Формат: AVI
Видео: 688x288 (2.39:1), 23.976 fps, XviD build 73, 816 kbps avg, 0.17 bit/pixel
Аудио: 48 kHz, MPEG Layer 3, 2 ch, 128.00 kbps avg


General
Complete name : D:\Annabelle.Creation.2017.BDRip.745MB.MegaPeer.avi
Format : AVI
Format/Info : Audio Video Interleave
File size : 745 MiB
Duration : 1 h 49 min
Overall bit rate : 950 kb/s

Video
ID : 0
Format : MPEG-4 Visual
Format profile : Advanced Simple@L5
Format settings, BVOP : 1
Format settings, QPel : No
Format settings, GMC : No warppoints
Format settings, Matrix : Custom
Codec ID : XVID
Codec ID/Hint : XviD
Duration : 1 h 49 min
Bit rate : 816 kb/s
Width : 688 pixels
Height : 288 pixels
Display aspect ratio : 2.40:1
Frame rate : 23.976 (24000/1001) FPS
Color space : YUV
Chroma subsampling : 4:2:0
Bit depth : 8 bits
Scan type : Progressive
Compression mode : Lossy
Bits/(Pixel*Frame) : 0.172
Stream size : 640 MiB (86%)
Writing library : XviD 73

Audio
ID : 1
Format : MPEG Audio
Format version : Version 1
Format profile : Layer 3
Codec ID : 55
Codec ID/Hint : MP3
Duration : 1 h 49 min
Bit rate mode : Constant
Bit rate : 128 kb/s
Channel(s) : 2 channels
Sampling rate : 48.0 kHz
Compression mode : Lossy
Stream size : 100 MiB (13%)
Alignment : Aligned on interleaves
Interleave, duration : 167 ms (4.00 video frames)
Interleave, preload duration : 216 ms
Writing library : LAME3.99r
Encoding settings : -m s -V 4 -q 2 -lowpass 17 -b 128
Скриншоты pb.wtf



Скачать Проклятие Аннабель: Зарождение зла через торрент http://i89.fastpic.ru/big/2017/1021/f9/defd4cf8bbf453b7fc9be7939026cef9.png Скачать фильм Проклятие Аннабель: Зарождение зла через торрент бесплантно в хорошем качестве Описание: Через несколько лет после трагической гибели маленькой дочери кукольник и его жена приглашают в свой дом монахиню и нескольких ... 10 10 4
Торрент: Зарегистрирован [2017-10-21 03:14] · скачан: 113 раз
Статус: √ проверено
Размер: 745 MB
Как cкачать? Как скачать Проклятие Аннабель: Зарождение зла через торрент | UTorrent

% Раздел Тема Автор DL S | L
T Фильмы (HD 720p, 1080p) (48-60 fps) [ 18.26 GB ] Проклятие Аннабель: Зарождение зла / Annabelle: Creation [2017 BDRip 1080p 60 fps] sheker187 Скачать
1 | 1
Фильмы (Blu-ray, BD-Remux, HDDVD) [ 24.54 GB ] Проклятие Аннабель: Зарождение зла / Annabelle: Creation [2017 BD Remux 1080p] DUB [] bober100 Скачать
1 | 0
Фильмы [HD 720p, 1080p] (Хороший звук DUB, MVO) [ 2.87 GB ] Проклятие Аннабель: Зарождение зла / Annabelle: Creation [2017 BDRip 720p] sokol_ok Скачать
1 | 0
Фильмы 2017 [DVDrip, WEB-DLRip, HDrip] (DUB, MVO) [ 746 MB ] Проклятие Аннабель: Зарождение зла / Annabelle: Creation [2017 BDRip-AVC] sokol_ok Скачать
2 | 0
Фильмы 2017 [DVDrip, WEB-DLRip, HDrip] (DUB, MVO) [ 1.48 GB ] Проклятие Аннабель: Зарождение зла / Annabelle: Creation [2017 BDRip-AVC] sokol_ok Скачать
2 | 0
Видео для КПК и Смартфонов [ 420 MB ] Проклятие Аннабель: Зарождение зла / Annabelle: Creation [2017 HDRip КПК] DUB [] bober100 Скачать
1 | 0
Фильмы 2017 [DVDrip, WEB-DLRip, HDrip] (DUB, MVO) [ 2.17 GB ] Проклятие Аннабель: Зарождение зла / Annabelle: Creation [2017 HDRip "BD EUR"] coc900 Скачать
1 | 0

28-11-2019 20:33  

Отключить всю рекламу на сайте

    Дорогой пользователь! Огромная просьба, поблагодарите релизера, оцените раздачу и оставьте свои комментарий, если Вы скачали Проклятие Аннабель: Зарождение зла через торрент бесплатно! Внесите свою лепту в развитие PiratBit!
    Комментировать посты могут только пользователи прошедшие не сложную регистрацию
    Показать сообщения:    

    Проклятие Аннабель: Зарождение зла через торрент
    Скачать бесплатно Проклятие Аннабель: Зарождение зла
    Проклятие Аннабель: Зарождение зла скачать торрент
    Проклятие Аннабель: Зарождение зла смотреть онлайн
    Cкачать фильм Проклятие Аннабель: Зарождение зла бесплатно
    Проклятие Аннабель: Зарождение зла скачать торрент в хорошем качестве
    Проклятие Аннабель: Зарождение зла смотреть онлайн бесплатно в хорошем качестве


    Вы не можете начинать темы
    Вы не можете отвечать на сообщения
    Вы не можете редактировать свои сообщения
    Вы не можете удалять свои сообщения
    Вы не можете голосовать в опросах
    Вы не можете прикреплять файлы к сообщениям
    Вы можете скачивать файлы