новый адрес
Ссылка на приватное зеркало всего за 1$. Внимание количество ограничено!!!

iTunes

1+1

iTunes

мы

iTunes

1

iTunes

Чернобыль

iTunes

Ральф против интернета

Лицензия

ПШазам

Лицензия

Оно 2

Лицензия

30
pack

Вам бонус

ВАЖНО

!!Акция!!

Alien_RageХит недели

RePack

Resident Evil 21

ИГРА 18+

pack

RePack

jed

!!Акция!!

Alien_Rage

RePack

fifa19

RePack

Assassins Creed: Odyssey

RePack

NEED FOR SPEED™ PAYBACK

3 сезон

9 сезон

Бесстыжие 9 сезон

Все сериалы

все сериалы на PB.wtf

RePack

FAR CRY 5
Ребята, катастрофически не хватает 1900р. для оплаты серверов за Октябрь (всвязи с блокировками трафик упал в 3 раза), 1-2р., выручайте.
  

Поэма о море (Юлия Солнцева) [1958, СССР, драма, DVDRip от AVP Studio] pb.wtf

Поэма о море через торрент pb.wtf

Размер: 746 MB | Добавлен: 2 года 1 мес. назад | Торрент скачан:12 раз
Скачать  

21-10-2017 08:00 Поэма о море Скачать торрент  

Поэма о море
Страна: СССР
Производство: Мосфильм

Жанр: драма
Год выпуска: 1958
Продолжительность: 01:44:13

Перевод: Не требуется
Cубтитры: нет
Оригинальная аудиодорожка: русский

Режиссер: Юлия Солнцева

В ролях:
Борис Ливанов, Борис Андреев, Михаил Царёв, Михаил Романов, Зинаида Кириенко, Иван Козловский, Леонид Тарабаринов, Георгий Ковров (Кувшинов), Мария Виталь, Евгений Бондаренко, Валентина Владимирова, Евгений Агуров, Наталья Наум, Антонина Кончакова, Леонид Пархоменко, Евгений Гуров, Кирилл Маринченко, Василий Витрищак, Ф. Трегуб...
Об актёрах подробней

Описание:
Игровая кинопоэма с элементами анимации о строителях Каховской гидростанции. Первая роль в кино Нины Сазоновой (Степанида), а также известного лирического тенора и знатока украинской народной песни Ивана Козловского (кобзарь).

Источник: DVD5 R5
Качество видео: DVDRip
Формат видео: AVI

Видео: 576x400 (1,440:1), 25 fps, XviD ~ 862 kbps avg, 0.150 bit/pixel
Аудио: 48 kHz, MP3 2.0, 128 kbps

Раздача от:
Общее
Полное имя : Poyema.o.more.1958.DVDRip-745_[New-team]_by_AVP_Studio.avi
Формат : AVI
Формат/Информация : Audio Video Interleave
Размер файла : 746 Мбайт
Продолжительность : 1 ч. 44 м.
Общий поток : 1000 Кбит/сек
Программа кодирования : VirtualDubMod 1.5.10.3 | www.virtualdub-fr.org || (build 2550/release)
Библиотека кодирования : VirtualDubMod build 2550/release

Видео
Идентификатор : 0
Формат : MPEG-4 Visual
Профиль формата : Advanced Simple@L5
Параметр BVOP формата : 1
Параметр QPel формата : Нет
Параметр GMC формата : Без точки перехода
Параметр матрицы формата : Выборочная
Идентификатор кодека : XVID
Идентификатор кодека/Подсказка : XviD
Продолжительность : 1 ч. 44 м.
Битрейт : 862 Кбит/сек
Ширина : 576 пикселей
Высота : 400 пикселей
Соотношение сторон : 1,440
Частота кадров : 25,000 кадров/сек
Цветовое пространство : YUV
Субдискретизация насыщенности : 4:2:0
Битовая глубина : 8 бит
Тип развёртки : Прогрессивная
Метод сжатия : С потерями
Бит/(Пиксели*Кадры) : 0.150
Размер потока : 643 Мбайт (86%)
Библиотека кодирования : XviD 73

Аудио
Идентификатор : 1
Формат : MPEG Audio
Версия формата : Version 1
Профиль формата : Layer 3
Идентификатор кодека : 55
Идентификатор кодека/Подсказка : MP3
Продолжительность : 1 ч. 44 м.
Вид битрейта : Постоянный
Битрейт : 128 Кбит/сек
Каналы : 2 канала
Частота : 48,0 КГц
Метод сжатия : С потерями
Размер потока : 95,4 Мбайт (13%)
Выравнивание : Соединение по промежуткам
Продолжительность промежутка : 40 мс. (1,00 видеокадр)
Время предзагрузки промежутка : 504 мс.
Библиотека кодирования : LAME3.99r
Настройки программы : -m s -V 4 -q 2 -lowpass 17 -b 128
pb.wtf



Скачать Поэма о море через торрент http://s015.radikal.ru/i331/1710/ac/06266dae00b0.png Скачать фильм Поэма о море через торрент бесплантно в хорошем качестве Описание:Игровая кинопоэма с элементами анимации о строителях Каховской гидростанции. Первая роль в кино Нины Сазоновой (Степанида), а ... 5 10 1
Info! Золотая раздача, скачанное не засчитывается.
Торрент: Зарегистрирован [2017-10-21 08:00] · скачан: 12 раз
Статус: √ проверено
Размер: 746 MB
Как cкачать? Как скачать Поэма о море через торрент | qTorrent

% Раздел Тема Автор DL S | L
Кино СССР [ 1.09 GB ] Поэма о море [1958 СССР DVDRip-AVC от AVP Studio] AVP Studio Скачать
1 | 0
Кино СССР [ 1.09 GB ] Поэма о море [1958 СССР DVDRip от AVP Studio] AVP Studio Скачать
1 | 0
    Дорогой пользователь! Огромная просьба, поблагодарите релизера, оцените раздачу и оставьте свои комментарий, если Вы скачали Поэма о море через торрент бесплатно! Внесите свою лепту в развитие PiratBit!
    Комментировать посты могут только пользователи прошедшие не сложную регистрацию
    Показать сообщения:    

    Поэма о море через торрент
    Скачать бесплатно Поэма о море
    Поэма о море скачать торрент
    Поэма о море смотреть онлайн
    Cкачать фильм Поэма о море бесплатно
    Поэма о море скачать торрент в хорошем качестве
    Поэма о море смотреть онлайн бесплатно в хорошем качестве


    Вы не можете начинать темы
    Вы не можете отвечать на сообщения
    Вы не можете редактировать свои сообщения
    Вы не можете удалять свои сообщения
    Вы не можете голосовать в опросах
    Вы не можете прикреплять файлы к сообщениям
    Вы можете скачивать файлы