новый адрес пиратбит piratbit
Мега распродажа FORZA HORIZON 4 ULTIMATE+ВСЕ DLC+ОНЛАЙН всего за 499р. 349 руб. (супер цена). Внимание количество ограничено!!!

iTunes

1+1

iTunes

мы

iTunes

1

iTunes

Чернобыль

iTunes

Ральф против интернета

Лицензия

ПШазам

Лицензия

Игра престолов

Лицензия

30
pack

ВАЖНО

!!Акция!!

Alien_RageХит недели

RePack

Resident Evil 21

ИГРА 18+

pack

RePack

Metro:Exodus

!!Акция!!

Alien_Rage

RePack

fifa19

RePack

Assassins Creed: Odyssey

RePack

NEED FOR SPEED™ PAYBACK

3 сезон

9 сезон

Бесстыжие 9 сезон

Все сериалы

все сериалы на PB.wtf

RePack

FAR CRY 5
Ребята, катастрофически не хватает 1900р. для оплаты серверов за Октябрь (всвязи с блокировками трафик упал в 3 раза), 1-2р., выручайте.
  

Поэма о море (Юлия Солнцева) [1958, СССР, драма, DVDRip-AVC от AVP Studio] pb.wtf

Поэма о море через торрент pb.wtf

Размер: 1.09 GB | Добавлен: 2 года назад | Торрент скачан:26 раз
Скачать  

21-10-2017 08:01 Поэма о море Скачать торрент  

Поэма о море
Страна: СССР
Производство: Мосфильм

Жанр: драма
Год выпуска: 1958
Продолжительность: 01:44:13

Перевод: Не требуется
Cубтитры: нет
Оригинальная аудиодорожка: русский

Режиссер: Юлия Солнцева

В ролях:
Борис Ливанов, Борис Андреев, Михаил Царёв, Михаил Романов, Зинаида Кириенко, Иван Козловский, Леонид Тарабаринов, Георгий Ковров (Кувшинов), Мария Виталь, Евгений Бондаренко, Валентина Владимирова, Евгений Агуров, Наталья Наум, Антонина Кончакова, Леонид Пархоменко, Евгений Гуров, Кирилл Маринченко, Василий Витрищак, Ф. Трегуб...
Об актёрах подробней

Описание:
Игровая кинопоэма с элементами анимации о строителях Каховской гидростанции. Первая роль в кино Нины Сазоновой (Степанида), а также известного лирического тенора и знатока украинской народной песни Ивана Козловского (кобзарь).

Источник: DVD5 R5
Качество видео: DVDRip-AVC
Формат видео: MKV

Видео: 696->718x538 (1,441:1), 25 fps, H264 ~ 1301 kbps avg, 0.139 bit/pixel
Аудио: 48 kHz, Dolby Digital AC3 2.0, 192 kbps

Раздача от:
Общее
Полное имя : Poyema.o.more.1958.DVDRip-AVC_[New-team]_by_AVP_Studio.mkv
Формат : Matroska
Версия формата : Version 2
Размер файла : 1,09 Гбайт
Продолжительность : 1 ч. 44 м.
Общий поток : 1495 Кбит/сек
Дата кодирования : UTC 2017-10-17 18:20:20
Программа кодирования : mkvmerge v6.1.0 ('Old Devil') built on Mar 4 2013 09:10:42
Библиотека кодирования : libebml v1.3.0 + libmatroska v1.4.0

Видео
Идентификатор : 1
Формат : AVC
Формат/Информация : Advanced Video Codec
Профиль формата : High@L4.1
Параметр CABAC формата : Да
Параметр RefFrames формата : 10 кадров
Идентификатор кодека : V_MPEG4/ISO/AVC
Продолжительность : 1 ч. 44 м.
Битрейт : 1301 Кбит/сек
Ширина : 696 пикселей
Высота : 538 пикселей
Соотношение сторон : 1,441
Соотношение сторон в оригинале : 1,440
Режим частоты кадров : Постоянный
Частота кадров : 25,000 кадров/сек
Цветовое пространство : YUV
Субдискретизация насыщенности : 4:2:0
Битовая глубина : 8 бит
Тип развёртки : Прогрессивная
Бит/(Пиксели*Кадры) : 0.139
Размер потока : 949 Мбайт (85%)
Библиотека кодирования : x264 core 130 r2273 b3065e6
Настройки программы : cabac=1 / ref=10 / deblock=1:-2:-1 / analyse=0x3:0x113 / me=umh / subme=10 / psy=1 / psy_rd=1.00:0.00 / mixed_ref=1 / me_range=32 / chroma_me=1 / trellis=2 / 8x8dct=1 / cqm=0 / deadzone=21,11 / fast_pskip=1 / chroma_qp_offset=-2 / threads=6 / lookahead_threads=1 / sliced_threads=0 / nr=0 / decimate=0 / interlaced=0 / bluray_compat=0 / constrained_intra=0 / bframes=8 / b_pyramid=2 / b_adapt=2 / b_bias=0 / direct=3 / weightb=1 / open_gop=0 / weightp=2 / keyint=250 / keyint_min=25 / scenecut=40 / intra_refresh=0 / rc=2pass / mbtree=0 / bitrate=1301 / ratetol=1.0 / qcomp=0.60 / qpmin=0 / qpmax=69 / qpstep=4 / cplxblur=20.0 / qblur=0.5 / ip_ratio=1.40 / pb_ratio=1.30 / aq=1:1.00
Default : Да
Forced : Нет

Аудио
Идентификатор : 2
Формат : AC-3
Формат/Информация : Audio Coding 3
Параметр Endianness формата : Big
Идентификатор кодека : A_AC3
Продолжительность : 1 ч. 44 м.
Вид битрейта : Постоянный
Битрейт : 192 Кбит/сек
Каналы : 2 канала
Расположение каналов : Front: L R
Частота : 48,0 КГц
Частота кадров : 31,250 кадров/сек (1536 SPF)
Битовая глубина : 16 бит
Метод сжатия : С потерями
Размер потока : 143 Мбайт (13%)
Default : Да
Forced : Нет
pb.wtf



Скачать Поэма о море через торрент http://s015.radikal.ru/i331/1710/ac/06266dae00b0.png Скачать фильм Поэма о море через торрент бесплантно в хорошем качестве Описание:Игровая кинопоэма с элементами анимации о строителях Каховской гидростанции. Первая роль в кино Нины Сазоновой (Степанида), а ... 5 10 1
Info! Золотая раздача, скачанное не засчитывается.
Торрент: Зарегистрирован [2017-10-21 08:01] · скачан: 26 раз
Статус: √ проверено
Размер: 1.09 GB
Как cкачать? Как скачать Поэма о море через торрент | qTorrent

% Раздел Тема Автор DL S | L
Кино СССР [ 746 MB ] Поэма о море [1958 СССР DVDRip от AVP Studio] AVP Studio Скачать
1 | 0
Кино СССР [ 1.09 GB ] Поэма о море [1958 СССР DVDRip от AVP Studio] AVP Studio Скачать
1 | 0


>> Регистрируемся здесь <<






Отзывы и комментарии о схеме читаем и пишем здесь: ---> Отзывы и комментарии о схеме

Новые благодарочки в телеграм довольных пользователей:
скриншот   скриншот   скриншот   скриншот   скриншот
    Дорогой пользователь! Огромная просьба, поблагодарите релизера, оцените раздачу и оставьте свои комментарий, если Вы скачали Поэма о море через торрент бесплатно! Внесите свою лепту в развитие PiratBit!
    Комментировать посты могут только пользователи прошедшие не сложную регистрацию
    Показать сообщения:    

    Поэма о море через торрент
    Скачать бесплатно Поэма о море
    Поэма о море скачать торрент
    Поэма о море смотреть онлайн
    Cкачать фильм Поэма о море бесплатно
    Поэма о море скачать торрент в хорошем качестве
    Поэма о море смотреть онлайн бесплатно в хорошем качестве


    Вы не можете начинать темы
    Вы не можете отвечать на сообщения
    Вы не можете редактировать свои сообщения
    Вы не можете удалять свои сообщения
    Вы не можете голосовать в опросах
    Вы не можете прикреплять файлы к сообщениям
    Вы можете скачивать файлы