Доктор Стрэндж

Лицензия

Добыча

Дубляж

Уэнсдэй

1 сезон

Тор

Дубляж

В эфире

Дубляж

Там, где раки поют

MVO

Властелин колец

1 сезон

Deluxe

pack

Рекомендуем

30

Пиратка

ВАЖНО

ВАЖНО

Ghostwire

Пиратка

jed

RePack

nioh2

RePack

RDR2

RePack

NEED FOR SPEED™ PAYBACK

RePack

скачать торрент

Кинопоиск HD

Острые козырьки 6 сезон

6 сезон

FAR CRY 6

RePack

скачать торрент

Лицензия

скачать торрент

MVO

1

1 сезон

скачать торрент

1 сезон

скачать торрент

Лицензия

  

Водопад Ангела / Seraphim Falls (Дэвид Фон Энкен) [2006, Триллер, драма, вестерн, военный, BDRip 1080p] MVO

Водопад Ангела через торрент pb.wtf

Размер: 8.54 GB | Добавлен: 5 лет 1 мес. назад | Торрент скачан:171 раз
Смотреть онлайн | Скачать   

21-10-2017 08:13 Водопад Ангела Скачать торрент  

Водопад Ангела / Seraphim FallsГод выпуска: 2006
Страна: США
Жанр: Триллер, драма, вестерн, военный
Продолжительность: 01:51:22
Перевод: Профессиональный (многоголосый)
Субтитры: отсутствуют

Режиссер: Дэвид Фон Энкен

rating

В ролях:

Лиам Нисон, Пирс Броснан, Майкл Уинкотт, Ксандер Беркли, Эд Лотер, Том Нунен, Кевин Дж. О`Коннор, Джон Робинсон, Анжелика Хьюстон, Энджи Хэрмон

Описание:

Гражданская война закончена, но не для всех. Небольшой отряд наемных стрелков, возглавляемый бывшим полковником армии Конфедератов Карвером, преследует экс-капитана армии Северян Гидеона. Погоня длится не один день, Гидеон ранен и обессилен, но по-прежнему опережает своих врагов. Что пробудило столь сильную ненависть Карвера, остается загадкой…

Качество: BDRip 1080p
Формат: MKV
Видео кодек: H.264
Аудио кодек: DTS

Видео: MPEG-4 AVC, 8703 Кбит/с, 1920x800
Аудио#1: Русский (DTS, 6 ch, 755 Кбит/с)
Аудио#2: английский (DTS, 6 ch, 1509 Кбит/с)
скриншот   скриншот   скриншот   скриншот   скриншот   скриншот  

Общее
Уникальный идентификатор : 229901161290979608684899863138661798930 (0xACF55A63515CED6EB4A11C4784979412)
Полное имя : D:\торреннты\hns-sf.mkv
Формат : Matroska
Версия формата : Version 1
Размер файла : 8,54 Гбайт
Продолжительность : 1 ч. 51 м.
Общий поток : 11,0 Мбит/сек
Название фильма : -=HANSMER=-
Дата кодирования : UTC 2008-04-22 00:28:04
Программа кодирования : mkvmerge v2.2.0 ('Turn It On Again') built on Mar 4 2008 13:20:25
Библиотека кодирования : libebml v0.7.7 + libmatroska v0.8.1

Видео
Идентификатор : 1
Формат : AVC
Формат/Информация : Advanced Video Codec
Профиль формата : [email protected]
Параметр CABAC формата : Да
Параметр ReFrames формата : 5 кадров
Идентификатор кодека : V_MPEG4/ISO/AVC
Продолжительность : 1 ч. 51 м.
Битрейт : 8703 Кбит/сек
Ширина : 1920 пикселей
Высота : 800 пикселей
Соотношение сторон : 2,40:1
Режим частоты кадров : Постоянный
Частота кадров : 23,976 кадра/сек
Цветовое пространство : YUV
Субдискретизация насыщенности : 4:2:0
Битовая глубина : 8 бит
Тип развёртки : Прогрессивная
Бит/(Пиксели*Кадры) : 0.236
Размер потока : 6,60 Гбайт (77%)
Заголовок : Seraphim.Falls.2006.LiMiTED.1080p.BluRay.x264-HD1080
Библиотека кодирования : x264 core 59 r819M 0414d78
Настройки программы : cabac=1 / ref=5 / deblock=1:0:0 / analyse=0x3:0x113 / me=umh / subme=7 / me-prepass=0 / brdo=1 / mixed_ref=1 / me_range=16 / chroma_me=1 / trellis=1 / 8x8dct=1 / cqm=0 / deadzone=21,11 / chroma_qp_offset=0 / threads=6 / nr=0 / decimate=1 / mbaff=0 / bframes=3 / b_pyramid=1 / b_adapt=1 / b_bias=0 / direct=1 / wpredb=1 / bime=1 / keyint=250 / keyint_min=25 / scenecut=40(pre) / rc=2pass / bitrate=8703 / ratetol=1.0 / rceq='blurCplx^(1-qComp)' / qcomp=1.00 / qpmin=10 / qpmax=51 / qpstep=4 / cplxblur=20.0 / qblur=0.5 / ip_ratio=1.40 / pb_ratio=1.30 / aq=2:1.00
Язык : English
Default : Да
Forced : Нет

Аудио #1
Идентификатор : 2
Формат : DTS
Формат/Информация : Digital Theater Systems
Режим : 16
Параметр Endianness формата : Big
Идентификатор кодека : A_DTS
Продолжительность : 1 ч. 51 м.
Вид битрейта : Постоянный
Битрейт : 755 Кбит/сек
Каналы : 6 каналов
Расположение каналов : Front: L C R, Side: L R, LFE
Частота : 48,0 КГц
Частота кадров : 93,750 кадра/сек (512 spf)
Битовая глубина : 24 бит
Метод сжатия : С потерями
Размер потока : 601 Мбайт (7%)
Язык : Russian
Default : Да
Forced : Нет

Аудио #2
Идентификатор : 3
Формат : DTS
Формат/Информация : Digital Theater Systems
Режим : 16
Параметр Endianness формата : Big
Идентификатор кодека : A_DTS
Продолжительность : 1 ч. 51 м.
Вид битрейта : Постоянный
Битрейт : 1509 Кбит/сек
Каналы : 6 каналов
Расположение каналов : Front: L C R, Side: L R, LFE
Частота : 48,0 КГц
Частота кадров : 93,750 кадра/сек (512 spf)
Битовая глубина : 24 бит
Метод сжатия : С потерями
Размер потока : 1,17 Гбайт (14%)
Язык : English
Default : Нет
Forced : Нет




Скачать Водопад Ангела через торрент http://s020.radikal.ru/i722/1412/22/8987aa5d8510.jpg Скачать, смотреть онлайн Водопад Ангела бесплантно в хорошем качестве Описание: Гражданская война закончена, но не для всех. Небольшой отряд наемных стрелков, возглавляемый бывшим полковником армии ... 10 10 9
Торрент: Зарегистрирован [2017-10-21 08:13] · скачан: 171 раз
Статус: T временная
Размер: 8.54 GB
Как cкачать? Как скачать Водопад Ангела через торрент | UTorrent

28-11-2019 20:33  


Отключить вcю реклaмy на сайте, в т.ч. и в плеере онлайн просмотра!

    Дорогой пользователь! Огромная просьба, поблагодарите релизера, оцените раздачу и оставьте свои комментарий, если Вы скачали Водопад Ангела через торрент бесплатно!!
    Комментировать посты могут только пользователи прошедшие не сложную регистрацию
    Показать сообщения:    


    Водопад Ангела через торрент
    Скачать бесплатно Водопад Ангела
    Водопад Ангела скачать торрент
    Водопад Ангела смотреть онлайн
    Cкачать фильм Водопад Ангела бесплатно
    Водопад Ангела скачать торрент в хорошем качестве
    Водопад Ангела смотреть онлайн бесплатно в хорошем качестве
    Вы не можете начинать темы
    Вы не можете отвечать на сообщения
    Вы не можете редактировать свои сообщения
    Вы не можете удалять свои сообщения
    Вы не можете голосовать в опросах
    Вы не можете прикреплять файлы к сообщениям
    Вы можете скачивать файлы
    Водопад Ангела / Seraphim Falls [2006, Триллер, драма, вестерн, военный, BDRip 1080p] MVO смотреть онлайн, скачать торрент picoco.icu