Всегда рабочее зеркало без VPN и Proxy просто перед .vidak.icu напиши любое слово или цифру, Пример http://unh9.vidak.icu

MVO

Лицензия

1 сезон

1

1 сезон

iTunes

1 сезон

13

1 сезон

Deluxe

pack

Рекомендуем

Пиратка

30

ВАЖНО

RePack

MK11

RePack

jed

RePack

fifa19

RePack

RDR2

RePack

NEED FOR SPEED™ PAYBACK

Кинопоиск HD

6 сезон

 Острые козырьки 6 сезон

Все сериалы

все сериалы на PB.wtf

RePack

FAR CRY 5
  
Magnet ссылка

Прибытие / Arrival (Дени Вильнёв ) [2016, фантастика, триллер, драма, BDRip 720p от _denis_100 | NNNB] DUB + 6xAVO + Original + Sub (2xRus,Eng) pb.wtf

Прибытие через торрент pb.wtf

Размер: 8.03 GB | Добавлен: 4 года 8 мес. назад | Торрент скачан:267 раз
Смотреть онлайн Прибытие | Скачать    Ребята, помогите собрать деньги на оплату серверов!!!

21-10-2017 09:06 Прибытие Скачать торрент  

Прибытие / Arrival
«Why are they here?»


Год выпуска: 2016
Страна: США
Жанр: фантастика, триллер, драма, детектив
Продолжительность: 01:56:27
Перевод: Дублированный, Авторский одноголосый
Субтитры: русские (Forced), русские (Full), английские (Full)
Режиссер: Дени Вильнёв
В ролях: Эми Адамс , Джереми Реннер , Форест Уитакер , Майкл Стулбарг , Марк О’Брайэн , Ци Ма , Эбигейл Пнёвски , Джулия Скарлет Дэн , Джейдин Мэлоун , Фрэнк Скорпион , Lucas Chartier-Dessert , Кристиан Джада
Описание:
Неожиданное появление неопознанных летающих объектов в разных точках планеты повергает мир в трепет. Намерения пришельцев не ясны - вооружённые силы всего мира приведены в полную боевую готовность, а лучшие умы человечества пытаются понять, как разговаривать с непрошеными гостями. Правительство обращается за помощью к лингвисту Луизе Бэнкс и физику Яну Доннели, чтобы предотвратить глобальную катастрофу и найти общий язык с пришельцами. Отныне судьба человечества находится в их руках.

PG-13 - Детям до 13 лет просмотр не желателен

Качество: BDRip 720p
Формат: MKV
Видео: AVC, 1280x536 (2.40:1), 4757 kbps, 23,976 fps, 0,289 bpp
Аудио №1: русский / AC3 / 5.1 / 48 kHz / 640 kbps / |Дублированный|
Аудио №2: русский / AC3 / 5.1 / 48 kHz / 640 kbps / |Авторский одноголосый, Ю.Сербин|
Аудио №3: русский / AC3 / 5.1 / 48 kHz / 640 kbps / |Авторский одноголосый, С.Визгунов|
Аудио №4: русский / AC3 / 5.1 / 48 kHz / 640 kbps / |Авторский одноголосый, А.Гаврилов|
Аудио №5: русский / AC3 / 5.1 / 48 kHz / 640 kbps / |Авторский одноголосый, В.Назаров|
Аудио №6: русский / AC3 / 5.1 / 48 kHz / 640 kbps / |Авторский одноголосый, Д.Есарев|
Аудио №7: русский / AC3 / 5.1 / 48 kHz / 640 kbps / |Авторский одноголосый, А.Матвеев|
Аудио №8: английский / AC3 / 5.1 / 48 kHz / 640 kbps /
Навигация по главам: естьАвтор рипа: Группа:
Format : Matroska
Format version : Version 2
File size : 8.03 GiB
Duration : 1 h 56 min
Overall bit rate : 9 876 kb/s
Movie name : Arrival.(2016).BDRip.720p.[denis100]
Encoded date : UTC 2017-10-21 08:37:47
Writing application : mkvmerge v5.8.0 ('No Sleep / Pillow') built on Sep 2 2012 15:37:04
Writing library : libebml v1.2.3 + libmatroska v1.3.0

Video
ID : 1
Format : AVC
Format/Info : Advanced Video Codec
Format profile : High@L4.1
Format settings, CABAC : Yes
Format settings, ReFrames : 11 frames
Codec ID : V_MPEG4/ISO/AVC
Duration : 1 h 56 min
Bit rate : 4 757 kb/s
Width : 1 280 pixels
Height : 536 pixels
Display aspect ratio : 2.40:1
Frame rate mode : Constant
Frame rate : 23.976 (24000/1001) FPS
Color space : YUV
Chroma subsampling : 4:2:0
Bit depth : 8 bits
Scan type : Progressive
Bits/(Pixel*Frame) : 0.289
Stream size : 3.71 GiB (46%)
Title : Arrival.(2016).BDRip.720p.[denis100]
Writing library : x264 core 152 r2851 ba24899
Encoding settings : cabac=1 / ref=11 / deblock=1:-3:-3 / analyse=0x3:0x113 / me=umh / subme=11 / psy=1 / psy_rd=1.00:0.05 / mixed_ref=1 / me_range=32 / chroma_me=1 / trellis=2 / 8x8dct=1 / cqm=0 / deadzone=21,11 / fast_pskip=0 / chroma_qp_offset=-3 / threads=6 / lookahead_threads=1 / sliced_threads=0 / nr=0 / decimate=1 / interlaced=0 / bluray_compat=0 / constrained_intra=0 / bframes=12 / b_pyramid=2 / b_adapt=2 / b_bias=0 / direct=3 / weightb=1 / open_gop=0 / weightp=2 / keyint=240 / keyint_min=23 / scenecut=40 / intra_refresh=0 / rc=2pass / mbtree=0 / bitrate=4757 / ratetol=1.0 / qcomp=0.60 / qpmin=0 / qpmax=69 / qpstep=4 / cplxblur=20.0 / qblur=0.5 / ip_ratio=1.40 / pb_ratio=1.30 / aq=1:0.85
Language : English
Default : Yes
Forced : No

Audio #1
ID : 2
Format : AC-3
Format/Info : Audio Coding 3
Mode extension : CM (complete main)
Format settings, Endianness : Big
Codec ID : A_AC3
Duration : 1 h 56 min
Bit rate mode : Constant
Bit rate : 640 kb/s
Channel(s) : 6 channels
Channel positions : Front: L C R, Side: L R, LFE
Sampling rate : 48.0 kHz
Frame rate : 31.250 FPS (1536 spf)
Compression mode : Lossy
Stream size : 533 MiB (6%)
Title : DUB
Language : Russian
Default : No
Forced : No

Audio #2
ID : 3
Format : AC-3
Format/Info : Audio Coding 3
Mode extension : CM (complete main)
Format settings, Endianness : Big
Codec ID : A_AC3
Duration : 1 h 56 min
Bit rate mode : Constant
Bit rate : 640 kb/s
Channel(s) : 6 channels
Channel positions : Front: L C R, Side: L R, LFE
Sampling rate : 48.0 kHz
Frame rate : 31.250 FPS (1536 spf)
Compression mode : Lossy
Stream size : 533 MiB (6%)
Title : AVO, Ю.Сербин
Language : Russian
Default : No
Forced : No

Audio #3
ID : 4
Format : AC-3
Format/Info : Audio Coding 3
Mode extension : CM (complete main)
Format settings, Endianness : Big
Codec ID : A_AC3
Duration : 1 h 56 min
Bit rate mode : Constant
Bit rate : 640 kb/s
Channel(s) : 6 channels
Channel positions : Front: L C R, Side: L R, LFE
Sampling rate : 48.0 kHz
Frame rate : 31.250 FPS (1536 spf)
Compression mode : Lossy
Stream size : 533 MiB (6%)
Title : AVO, С.Визгунов
Language : Russian
Default : No
Forced : No

Audio #4
ID : 5
Format : AC-3
Format/Info : Audio Coding 3
Mode extension : CM (complete main)
Format settings, Endianness : Big
Codec ID : A_AC3
Duration : 1 h 56 min
Bit rate mode : Constant
Bit rate : 640 kb/s
Channel(s) : 6 channels
Channel positions : Front: L C R, Side: L R, LFE
Sampling rate : 48.0 kHz
Frame rate : 31.250 FPS (1536 spf)
Compression mode : Lossy
Stream size : 533 MiB (6%)
Title : AVO, А.Гаврилов
Language : Russian
Default : No
Forced : No

Audio #5
ID : 6
Format : AC-3
Format/Info : Audio Coding 3
Mode extension : CM (complete main)
Format settings, Endianness : Big
Codec ID : A_AC3
Duration : 1 h 56 min
Bit rate mode : Constant
Bit rate : 640 kb/s
Channel(s) : 6 channels
Channel positions : Front: L C R, Side: L R, LFE
Sampling rate : 48.0 kHz
Frame rate : 31.250 FPS (1536 spf)
Compression mode : Lossy
Stream size : 533 MiB (6%)
Title : AVO, В.Назаров
Language : Russian
Default : No
Forced : No

Audio #6
ID : 7
Format : AC-3
Format/Info : Audio Coding 3
Mode extension : CM (complete main)
Format settings, Endianness : Big
Codec ID : A_AC3
Duration : 1 h 56 min
Bit rate mode : Constant
Bit rate : 640 kb/s
Channel(s) : 6 channels
Channel positions : Front: L C R, Side: L R, LFE
Sampling rate : 48.0 kHz
Frame rate : 31.250 FPS (1536 spf)
Compression mode : Lossy
Stream size : 533 MiB (6%)
Title : AVO, Д.Есарев
Language : Russian
Default : No
Forced : No

Audio #7
ID : 8
Format : AC-3
Format/Info : Audio Coding 3
Mode extension : CM (complete main)
Format settings, Endianness : Big
Codec ID : A_AC3
Duration : 1 h 56 min
Bit rate mode : Constant
Bit rate : 640 kb/s
Channel(s) : 6 channels
Channel positions : Front: L C R, Side: L R, LFE
Sampling rate : 48.0 kHz
Frame rate : 31.250 FPS (1536 spf)
Compression mode : Lossy
Stream size : 533 MiB (6%)
Title : AVO, А.Матвеев
Language : Russian
Default : No
Forced : No

Audio #8
ID : 9
Format : AC-3
Format/Info : Audio Coding 3
Mode extension : CM (complete main)
Format settings, Endianness : Big
Codec ID : A_AC3
Duration : 1 h 56 min
Bit rate mode : Constant
Bit rate : 640 kb/s
Channel(s) : 6 channels
Channel positions : Front: L C R, Side: L R, LFE
Sampling rate : 48.0 kHz
Frame rate : 31.250 FPS (1536 spf)
Compression mode : Lossy
Stream size : 533 MiB (6%)
Language : English
Default : No
Forced : No

Text #1
ID : 10
Format : UTF-8
Codec ID : S_TEXT/UTF8
Codec ID/Info : UTF-8 Plain Text
Title : Forced
Language : Russian
Default : Yes
Forced : No

Text #2
ID : 11
Format : UTF-8
Codec ID : S_TEXT/UTF8
Codec ID/Info : UTF-8 Plain Text
Title : Full
Language : Russian
Default : No
Forced : No

Text #3
ID : 12
Format : UTF-8
Codec ID : S_TEXT/UTF8
Codec ID/Info : UTF-8 Plain Text
Title : Full
Language : English
Default : No
Forced : No

Menu
00:00:00.000 : en:00:00:00.000
00:09:49.923 : en:00:09:49.923
00:17:33.552 : en:00:17:33.552
00:23:28.282 : en:00:23:28.282
00:33:54.157 : en:00:33:54.157
00:41:01.709 : en:00:41:01.709
00:52:26.101 : en:00:52:26.101
00:57:34.576 : en:00:57:34.576
01:03:06.449 : en:01:03:06.449
01:09:29.207 : en:01:09:29.207
01:16:09.398 : en:01:16:09.398
01:25:21.825 : en:01:25:21.825
01:35:37.065 : en:01:35:37.065
01:45:26.695 : en:01:45:26.695
скриншот   скриншот   скриншот   скриншот  
pb.wtf



Скачать Прибытие через торрент http://i3.imageban.ru/out/2017/10/21/b6d674c8684339f36bf4d9077dde632e.png Скачать, смотреть онлайн Прибытие бесплантно в хорошем качестве Описание:Неожиданное появление неопознанных летающих объектов в разных точках планеты повергает мир в трепет. Намерения пришельцев не ясны ... 10 10 7
Info! Золотая раздача, скачанное не засчитывается.
Торрент: Зарегистрирован [2017-10-21 09:06] · скачан: 267 раз
Статус: √ проверено
Размер: 8.03 GB
Как cкачать? Как скачать Прибытие через торрент | UTorrent

% Раздел Тема Автор DL S | L
Ultra HD (UHD: 2K, 4K, 8K) — видео сверхвысокой чёткости [ 19.43 GB ] Прибытие / Arrival [2016 UHD BDRip 2160p] [SDR] DUB + 2xAVO sheker187 Скачать
1 | 0
Ultra HD (UHD: 2K, 4K, 8K) — видео сверхвысокой чёткости [ 68.63 GB ] Прибытие / Arrival [2016 UHD BDRemux 2160p] DUB + MVO + 7xAVO sheker187 Скачать
1 | 0
Фильмы [HD 720p, 1080p] (Хороший звук DUB, MVO) [ 18.21 GB ] Прибытие / The Arrival [1996 BDRip 1080p by msltel] 2 x MVO 3 x DVO 3 x AVO msltel Скачать
1 | 0
Фильмы [HD 720p, 1080p] (Хороший звук DUB, MVO) [ 8.31 GB ] Прибытие / The Arrival [1996 BDRip 720p by msltel] 2 x MVO 3 x DVO 3 x AVO msltel Скачать
1 | 0
T Фильмы 2017 [DVDrip, WEB-DLRip, HDrip] (DUB, MVO) [ 1.6 GB ] Смерть по прибытии / Dead on Arrival [2017 трилле WEB-DLRip-AVC] MVO [HDRezka Studio] bober100 Скачать
1 | 0
Фильмы 2016 [DVDrip, WEB-DLRip, HDrip] (DUB, MVO) [ 2.18 GB ] Прибытие / Arrival [2016 BDRip-AVC] sokol_ok Скачать
2 | 0
T Фильмы (WEB-DL 720p, 1080p) [ 3.44 GB ] Смерть по прибытии / Dead on Arrival [2017 WEB-DL 1080p] MVO [HDrezka Studio] sokol_ok Скачать
2 | 0

28-11-2019 20:33  

Отключить всю рекламу на сайте

    Дорогой пользователь! Огромная просьба, поблагодарите релизера, оцените раздачу и оставьте свои комментарий, если Вы скачали Прибытие через торрент бесплатно!
    Комментировать посты могут только пользователи прошедшие не сложную регистрацию
    Показать сообщения:    

    Прибытие через торрент
    Скачать бесплатно Прибытие
    Прибытие скачать торрент
    Прибытие смотреть онлайн
    Cкачать фильм Прибытие бесплатно
    Прибытие скачать торрент в хорошем качестве
    Прибытие смотреть онлайн бесплатно в хорошем качестве


    Вы не можете начинать темы
    Вы не можете отвечать на сообщения
    Вы не можете редактировать свои сообщения
    Вы не можете удалять свои сообщения
    Вы не можете голосовать в опросах
    Вы не можете прикреплять файлы к сообщениям
    Вы можете скачивать файлы