Всегда рабочее зеркало без VPN и Proxy просто перед .vidak.icu напиши любое слово или цифру, Пример http://olxp.vidak.icu

MVO

2 сезон

2 сезон

1

1 сезон

iTunes

2 сезон

13

1 сезон

Распродажа

pack

Рекомендуем

Пиратка

30

ВАЖНО

RePack

MK11

RePack

jed

RePack

fifa19

RePack

RDR2

RePack

NEED FOR SPEED™ PAYBACK

Кинопоиск HD

6 сезон

 Острые козырьки 6 сезон

Все сериалы

все сериалы на PB.wtf

RePack

FAR CRY 5

Anonymous, нам критически не хватает 5601 руб. на оплату серверов и переферии за Апрель, помоги нам пожалуйста, вся надежда только на тебя. В благодарность мы отключим тебе всю рекламу на сайте!

×
  
Magnet ссылка

Гэльский король / The Gaelic King (Филип Тодд) [2017, фэнтези, боевик, WEB-DL 720p] MVO ["Синема УС"] pb.wtf

Гэльский король через торрент pb.wtf

Размер: 2.74 GB | Добавлен: 4 года 6 мес. назад | Торрент скачан:204 раза
Смотреть онлайн Гэльский король | Скачать    Ребята, помогите собрать деньги на оплату серверов!!!

21-10-2017 12:40 Гэльский король Скачать торрент  

Гэльский король / The Gaelic King
Год выпуска: 2017
Страна: Великобритания
Жанр: фэнтези, боевик
Продолжительность: 01:28:43
Перевод: Любительский (многоголосый) - ["Синема УС"]
Субтитры: английские

Режиссер: Филип Тодд

rating

В ролях:

Джейк МакГарри, Шона Мелроуз, Керри Браун, Ной Ирвин, Лоуренс Уитли, Питер Косгров, Симон ДеСильва, Элли Рид, Алан Кетберт, Аласдер Блэр

Описание:

800 год нашей эры, в Шотландии идёт война между пиктами и гэлами. Гэльский король прячется в лесах, но когда злые силы похищают его брата, ему приходится сразиться за своё королевство и вернуть мир на свою землю.

Качество: WEB-DL 720p
Формат: MKV
Видео кодек: H.264
Аудио кодек: AC3

Видео: 4041 Кбит/с, 1280x544
Аудио#1: Русский, (AC3, 2 ch, 384 Кбит/с)

скриншот   скриншот   скриншот  

Общее
Уникальный идентификатор : 216333318527100225570739540836186150565 (0xA2C04817B95C03EBB26D1C16410D56A5)
Полное имя : D:\The.Gaelic.King.2017.P.WEB-DL.72Op_KOSHARA.mkv
Формат : Matroska
Версия формата : Version 2
Размер файла : 2,74 Гбайт
Продолжительность : 1 ч. 28 м.
Режим общего битрейта : Переменный
Общий поток : 4427 Кбит/сек
Дата кодирования : UTC 2017-10-20 14:12:19
Программа кодирования : mkvmerge v8.3.0 ('Over the Horizon') 64bit
Библиотека кодирования : libebml v1.3.1 + libmatroska v1.4.2

Видео
Идентификатор : 1
Формат : AVC
Формат/Информация : Advanced Video Codec
Профиль формата : High@L4.1
Параметр CABAC формата : Да
Параметр ReFrames формата : 12 кадров
Идентификатор кодека : V_MPEG4/ISO/AVC
Продолжительность : 1 ч. 28 м.
Вид битрейта : Переменный
Битрейт : 4041 Кбит/сек
Максимальный битрейт : 4500 Кбит/сек
Ширина : 1280 пикселей
Высота : 544 пикселя
Соотношение сторон : 2,35:1
Режим частоты кадров : Постоянный
Частота кадров : 23,976 (24000/1001) кадра/сек
Стандарт вещания : Component
Цветовое пространство : YUV
Субдискретизация насыщенности : 4:2:0
Битовая глубина : 8 бит
Тип развёртки : Прогрессивная
Бит/(Пиксели*Кадры) : 0.242
Размер потока : 2,50 Гбайт (91%)
Default : Да
Forced : Нет
Цветовой диапазон : Limited
Основные цвета : BT.709
Характеристики трансфера : BT.709
Коэффициенты матрицы : BT.709

Аудио
Идентификатор : 2
Формат : AC-3
Формат/Информация : Audio Coding 3
Расширение режима : CM (complete main)
Параметр Endianness формата : Big
Идентификатор кодека : A_AC3
Продолжительность : 1 ч. 28 м.
Вид битрейта : Постоянный
Битрейт : 384 Кбит/сек
Каналы : 2 канала
Расположение каналов : Front: L R
Частота : 48,0 КГц
Частота кадров : 31,250 кадров/сек (1536 spf)
Метод сжатия : С потерями
Размер потока : 244 Мбайт (9%)
Default : Да
Forced : Нет

pb.wtf



Скачать Гэльский король через торрент http://s001.radikal.ru/i193/1710/83/aebf1af73907.jpg Скачать, смотреть онлайн Гэльский король бесплантно в хорошем качестве Описание: 800 год нашей эры, в Шотландии идёт война между пиктами и гэлами. Гэльский король прячется в лесах, но когда злые силы похищают ... 9.9 10 7
Торрент: Зарегистрирован [2017-10-21 12:40] · скачан: 204 раз
Статус: T временная
Размер: 2.74 GB
Как cкачать? Как скачать Гэльский король через торрент | UTorrent

% Раздел Тема Автор DL S | L
T Релизы по Парсеру [Игры, Сериалы и Фильмы и другое...] [ 1.37 GB ] Гэльский король / The Gaelic King [2017 WEB-DLRip] MVO ["Синема УС"] bober100 Скачать
1 | 0

28-11-2019 20:33  

Отключить всю рекламу на сайте

21-10-2017 12:52 Гэльский король Скачать торрент  

видимо у них это звучит так pb.wtf



22-10-2017 09:18 Гэльский король Скачать торрент  

кто млять такие гЭлыpb.wtf



22-10-2017 11:15 Гэльский король Скачать торрент  

knad писал(а):

кто млять такие гЭлы

Гэлы (гаэлы, гойделы) − группа древних кельтских племен, чьи предки с 1 тысячелетия до нашей эры населяли Британские острова. Поселившись в Ирландии, предки гэлов смешались с местным доиндоевропейским населением и положили начало формированию ирландской народности. В пятом-шестом веках часть их переселилась в Шотландию. Здесь, смешавшись с пиктами, они принимают непосредственное участие в формировании шотландской народности.

В настоящее время гэлами называют жителей горных районов Шотландии и Гебридских островов. По-другому их именуют хайлендерами, что озачает «горцы».
ГЭ́ЛЫ (гаэлы, гойделы; самоназвания – ирландское Gaedheal, шотландское Gàidheal), кельтский народ, этническая группа в составе ирландцев и шотландцев, коренное население Ирландии, Шотландии и острова Мэн. Живут в основном на западном побережье Ирландии (графства Керри, Голуэй, Мейо и Донегол), в северо-западной Шотландии (Хайленд), на Гебридских островах (Великобритания) и острове Мэн; значительное гэльское население в городах Шотландии (Глазго, Инвернесс и др.). Численность в Ирландии 77 тыс. чел. (2011, перепись), в Великобритании гэл-ирландцев 65 тыс. чел., гэл-шотландцев – 57,6 тыс. чел. (2011, перепись).
pb.wtf



23-10-2017 05:41 Гэльский король Скачать торрент  

Пофиг на сюжет, хрен с ним видимо копеечным бюджетом - фильм благодаря плоской и деревянной игре актёров, унылыми постановками, отвратными съёмками (кроме некоторых статичных видов) и режиссурой от начинающего школьного драмкружка более чем непригоден к просмотру. Если только вам не заплатят за это или вы хорошо засыпаете под визуальный депресив.))pb.wtf



14-12-2017 17:56 Гэльский король Скачать торрент  

    Дорогой пользователь! Огромная просьба, поблагодарите релизера, оцените раздачу и оставьте свои комментарий, если Вы скачали Гэльский король через торрент бесплатно!
    Комментировать посты могут только пользователи прошедшие не сложную регистрацию
    Показать сообщения:    

    Гэльский король через торрент
    Скачать бесплатно Гэльский король
    Гэльский король скачать торрент
    Гэльский король смотреть онлайн
    Cкачать фильм Гэльский король бесплатно
    Гэльский король скачать торрент в хорошем качестве
    Гэльский король смотреть онлайн бесплатно в хорошем качестве


    Вы не можете начинать темы
    Вы не можете отвечать на сообщения
    Вы не можете редактировать свои сообщения
    Вы не можете удалять свои сообщения
    Вы не можете голосовать в опросах
    Вы не можете прикреплять файлы к сообщениям
    Вы можете скачивать файлы