Ссылка на приватное зеркало всего за 1$. Внимание количество ограничено!!!

OK

1+1

iTunes

мы

OK

1

WEB-DLRip

Джокер

Пифагор

Ведьмак / The Witcher сериал

iTunes

ПШазам

ОК

Оно 2

iTunes

30
pack

Вам бонус

ВАЖНО

!!Акция!!

Alien_RageХит недели

RePack

Resident Evil 21

ИГРА 18+

pack

RePack

jed

RePack

fifa19

RePack

Assassins Creed: Odyssey

RePack

NEED FOR SPEED™ PAYBACK

4 сезон

9 сезон

Бесстыжие 9 сезон

Все сериалы

все сериалы на PB.wtf

RePack

FAR CRY 5
  

Граница / Frontier / Сезон: 2 / Серии: 1-6 из 6 (Брэд Пейтон, Джон Ватчер, Келли Макин) [2017, приключения, WEBRip 720p] MVO [Jaskier] pb.wtf

Граница через торрент pb.wtf

Размер: 7.71 GB | Добавлен: 1 мес. 16 д. назад | Торрент скачан:16 раз
Скачать  

22-10-2017 03:11 Граница Скачать торрент  

Граница / Frontier Год выпуска: 2017
Страна: Канада
Жанр: приключения
Продолжительность: ~ 00:45:00
Перевод: Профессиональный многоголосый | Jaskier
Субтитры: Английские

Режиссер: Брэд Пейтон, Джон Ватчер, Келли Макин

rating

В ролях: Диана Бентли, Бриэнн Хилл, Джейсон Момоа, Джессика Мэттен, Пол Ивэн Уилсон, Майкл Патрик, Уильям Белло, Пол Фауте, Эван Джонигкейт, Кристиан МакКэй, Лайла Портер Фоллоус

Описание: Сериал расскажет о жестокой и кровавой борьбе за богатство и Влacть в торговле пушниной на просторах Северной Америки в XVIII веке. Бизнес приходится вести в очень сложных условиях жестокого противостояния коренных племён и понаехавших на континент европейцев.

Качество: WEBRip 720p
Формат: MKV

Видео: 1280x640 (16:9) | X264 | ~3150 kbps | 23.976 fps
Аудио 1: AC3, 48,0 КГц, 6 ch, 384 kbps - [RUS]
Аудио 2: AC3, 48,0 КГц, 6 ch, 384 kbps - [ENG]
скриншот  скриншот  скриншот  

Общее
Уникальный идентификатор : 207487574867214193935066440183025852624 (0x9C18A7421C1C6D40A7DC356F96ED60D0)
Полное имя : D:\Frontier Season 2 (WEBRip l 720p l Jaskier)\Frontier.S02E01.WEBRip.720p.Jaskier.Rus.Eng.mkv
Формат : Matroska
Версия формата : Version 4 / Version 2
Размер файла : 1,40 Гбайт
Продолжительность : 51 м. 41 с.
Общий поток : 3884 Кбит/сек
Дата кодирования : UTC 2017-12-29 21:59:24
Программа кодирования : mkvmerge v15.0.0 ('Duel with the Devil') 64-bit
Библиотека кодирования : libebml v1.3.5 + libmatroska v1.4.5

Видео
Идентификатор : 1
Формат : AVC
Формат/Информация : Advanced Video Codec
Профиль формата : High@L4.1
Параметр CABAC формата : Да
Параметр RefFrames формата : 8 кадров
Идентификатор кодека : V_MPEG4/ISO/AVC
Продолжительность : 51 м. 41 с.
Битрейт : 3150 Кбит/сек
Ширина : 1280 пикселей
Высота : 640 пикселей
Соотношение сторон : 2,000
Режим частоты кадров : Постоянный
Частота кадров : 23,976 (24000/1001) кадра/сек
Цветовое пространство : YUV
Субдискретизация насыщенности : 4:2:0
Битовая глубина : 8 бит
Тип развёртки : Прогрессивная
Бит/(Пиксели*Кадры) : 0.160
Размер потока : 1,10 Гбайт (78%)
Библиотека кодирования : x264 core 152 r2851 ba24899
Настройки программы : cabac=1 / ref=8 / deblock=1:-1:-1 / analyse=0x3:0x113 / me=umh / subme=2 / psy=1 / psy_rd=1.00:0.20 / mixed_ref=1 / me_range=16 / chroma_me=1 / trellis=2 / 8x8dct=1 / cqm=0 / deadzone=21,11 / fast_pskip=0 / chroma_qp_offset=-1 / threads=20 / lookahead_threads=5 / sliced_threads=0 / nr=0 / decimate=0 / interlaced=0 / bluray_compat=0 / constrained_intra=0 / bframes=1 / b_pyramid=0 / b_adapt=2 / b_bias=0 / direct=1 / weightb=1 / open_gop=0 / weightp=2 / keyint=250 / keyint_min=23 / scenecut=40 / intra_refresh=0 / rc_lookahead=50 / rc=abr / mbtree=1 / bitrate=3150 / ratetol=1.0 / qcomp=0.60 / qpmin=0 / qpmax=69 / qpstep=4 / vbv_maxrate=14000 / vbv_bufsize=14000 / nal_hrd=none / filler=0 / ip_ratio=1.40 / aq=1:1.00
Default : Да
Forced : Нет

Аудио #1
Идентификатор : 2
Формат : AC-3
Формат/Информация : Audio Coding 3
Расширение режима : CM (complete main)
Параметр Endianness формата : Big
Идентификатор кодека : A_AC3
Продолжительность : 51 м. 41 с.
Вид битрейта : Постоянный
Битрейт : 384 Кбит/сек
Каналы : 6 каналов
Расположение каналов : Front: L C R, Side: L R, LFE
Частота : 48,0 КГц
Частота кадров : 31,250 кадров/сек (1536 spf)
Метод сжатия : С потерями
Размер потока : 142 Мбайт (10%)
Заголовок : Jaskier
Язык : Russian
Default : Да
Forced : Нет

Аудио #2
Идентификатор : 3
Формат : AC-3
Формат/Информация : Audio Coding 3
Расширение режима : CM (complete main)
Параметр Endianness формата : Big
Идентификатор кодека : A_AC3
Продолжительность : 51 м. 41 с.
Вид битрейта : Постоянный
Битрейт : 384 Кбит/сек
Каналы : 6 каналов
Расположение каналов : Front: L C R, Side: L R, LFE
Частота : 48,0 КГц
Частота кадров : 31,250 кадров/сек (1536 spf)
Метод сжатия : С потерями
Размер потока : 142 Мбайт (10%)
Язык : English
Default : Нет
Forced : Нет

Текст
Идентификатор : 4
Формат : UTF-8
Идентификатор кодека : S_TEXT/UTF8
Идентификатор кодека/Информация : UTF-8 Plain Text
Заголовок : Forced
Язык : English
Default : Нет
Forced : Нет

Внимание! Раздача ведётся путём добавления новых серий; при каждом добавлении создаётся новый торрент. Чтобы начать докачку новой серии, пользователям необходимо сделать следующее:
(1) остановить скачивание,
(2) удалить старый торрент у себя из клиента (старые серии удалять не надо),
(3) скачать новый торрент и запустить его у себя в клиенте вместо старого, при этом указать клиенту путь в старую папку куда и должно происходить скачивание новых серий.
Ваш клиент при этом должен произвести хеширование (проверку) старой папки (если не производит сам - помогите ему сделать это), и будет докачивать только те серии которых у вас ещё нет. Старые серии при этом не удаляются, а продолжают раздаваться!
Eсли вы уже удалили старые серии, то предотвратить повторную закачку старых серий можно, отжав галочку в соответсвующих местах при запуске нового торрента. По возможности, желательно не удалять старые серии как можно дольше чтобы релизёр не столько продолжал раздавать старые серии, а смог сконцентрироваться на новых.
pb.wtf



Скачать Граница через торрент http://i103.fastpic.ru/big/2017/1230/b4/002ab02ad7c2a4aefb23321c6b5fedb4.png Скачать фильм Граница через торрент бесплантно в хорошем качестве Описание: Сериал расскажет о жестокой и кровавой борьбе за богатство и Влacть в торговле пушниной на просторах Северной Америки в XVIII ... 10 10 5
Торрент: Зарегистрирован [2019-12-11 05:54] · скачан: 16 раз
Статус: √ проверено
Размер: 7.71 GB
Как cкачать? Как скачать Граница через торрент | qTorrent

% Раздел Тема Автор DL S | L
Зарубежные сериалы [ 9.46 GB ] Граница / Frontier / Сезон 2 / Серии 1-6 из 6 [2017 Историческая WEBRip 1080p] MVO [Jaskier] bober100 Скачать
1 | 0
Зарубежные сериалы [ 3.52 GB ] Граница / Frontier / Сезон 2 / Серии 1-6 из 6 [2017 Историческая WEBRip] MVO [Jaskier] bober100 Скачать
1 | 0
Зарубежные сериалы [ 5.39 GB ] Граница / Frontier / Сезон 2 / Серии 1-6 из 6 [2017 Историческая HDTVRip 720p] MVO [Good People] bober100 Скачать
2 | 0
Зарубежные сериалы [ 3.22 GB ] Граница / Рубеж / Frontier / Сезон: 2 / Серии 1-6 из 6 [2017 Историческая HDTVRip] [MVO] killermax2013 Скачать
1 | 0
Зарубежные сериалы [ 9.46 GB ] Граница / Frontier / Сезон 2 / Серии 1-6 из 6 [2017 Историческая WEB-DL 1080p] [MVO] killermax2013 Скачать
1 | 0
Зарубежные сериалы [ 4.45 GB ] Граница / Рубеж / Frontier / Сезон: 2 / Серии 1-5 из 6 [2017 HDTVRip 720p] MVO [BaibaKo] GEKADOL Скачать
1 | 0
Зарубежные сериалы [ 3.26 GB ] Граница / Frontier / Сезон 2 / Серии 1-6 из 6 [2017 Историческая HDTVRip ] MVO [Good People] bober100 Скачать
1 | 0

28-11-2019 20:33  

Отключить всю рекламу на сайте

    Дорогой пользователь! Огромная просьба, поблагодарите релизера, оцените раздачу и оставьте свои комментарий, если Вы скачали Граница через торрент бесплатно! Внесите свою лепту в развитие PiratBit!
    Комментировать посты могут только пользователи прошедшие не сложную регистрацию
    Показать сообщения:    

    Граница через торрент
    Скачать бесплатно Граница
    Граница скачать торрент
    Граница смотреть онлайн
    Cкачать фильм Граница бесплатно
    Граница скачать торрент в хорошем качестве
    Граница смотреть онлайн бесплатно в хорошем качестве


    Вы не можете начинать темы
    Вы не можете отвечать на сообщения
    Вы не можете редактировать свои сообщения
    Вы не можете удалять свои сообщения
    Вы не можете голосовать в опросах
    Вы не можете прикреплять файлы к сообщениям
    Вы можете скачивать файлы