2 сезон

iTunes

MVO

1

2 сезон

iTunes

iTunes

1 сезон

RePack

30

Новинка

ВАЖНО

ИГРА 18+

pack

RePack

MK11
pack

Легкие деньги

RePack

jed

RePack

fifa19

RePack

RDR2

RePack

NEED FOR SPEED™ PAYBACK

4 сезон

9 сезон

Бесстыжие 9 сезон

Все сериалы

все сериалы на PB.wtf

RePack

FAR CRY 5

Anonymous, добрый вечер, мы не успеваем собрать деньги на оплату серверов за декабрь и январь, помогите нам пожалуйста в это трудное время. В качестве благодарности мы отключим Вам всю рекламу на сайте (укажите свой ник в строку Ваше имя)!

×
  
Magnet ссылка

Ленинград - Сборник видеоклипов [34 шт.] (2011-2017) [2017, Рок, Панк-Рок, Ска, Ска-Панк, WEBRip 1080p] pb.wtf

Ленинград - Сборник видеоклипов через торрент pb.wtf

Размер: 4.7 GB | Добавлен: 3 года 1 мес. назад | Торрент скачан:762 раза
Скачать  

22-10-2017 11:10 Ленинград - Сборник видеоклипов Скачать торрент  

Ленинград - Сборник видеоклипов (2011-2017)Год выпуска: 2017
Страна: Россия
Жанр: Рок, Панк-Рок, Ска, Ска-Панк
Продолжительность: 34 x ~ 00:04:00
Перевод: Не требуется Русский
Субтитры: отсутствуют

Качество: WEBRip 1080p
Формат: MKV
Видео кодек: H.264
Аудио кодек: AC3

Видео: 4000 Кбит/с, 1920x1080, 25 fps
Аудио: AC3, 2 ch, 384 Кбит/с

Добавлен 34. Ленинград — Вояж.
01. Ленинград — Dr. House
02. Ленинград — Про любовь
03. Ленинград — Где моя вода?
04. Ленинград — Властелин ключа
05. Ленинград — Батл Красного
06. Ленинград — Сумка
07. Ленинград — Плачу
08. Ленинград — Суходрочка
09. Ленинград — Цунами
10. Ленинград — Дорожная
11. Ленинград — Ueban
12. Ленинград — Мои
13. Ленинград — Платье
14. Ленинград — Скоро в школу
15. Ленинград — Ебаб
16. Ленинград — Патриотка
17. Ленинград — Похороны
18. Ленинград — Никола
19. Ленинград — Карасик
20. Ленинград — Бомба
21. Ленинград — Отпускная
22. Ленинград — Молитвенная
23. Ленинград — Вип
24. Ленинград — ЗОЖ
25. Ленинград — Экспонат
26. Ленинград — В Питере - пить
27. Ленинград — Сиськи
28. Ленинград — Очки Собчак
29. Ленинград — Обезьяна и Орёл
30. Ленинград — Кольщик
31. Ленинград — Экстаз
32. Ленинград — Ч.П.Х.
33. Ленинград — Кандидат
34. Ленинград — Вояж.

скриншот   скриншот   скриншот   скриншот   скриншот   скриншот  

Общее
Уникальный идентификатор : 90396516885113312687774908014107440862 (0x4401BC62389823A470092EB453D636DE)
Полное имя : C:\Users\Бобер\Desktop\Leningrad.Videoklipi.1080p.7turza\01. Ленинград — Dr. House (2011).mkv
Формат : Matroska
Версия формата : Version 4 / Version 2
Размер файла : 131 Мбайт
Продолжительность : 4 м. 5 с.
Общий поток : 4493 Кбит/сек
Программа кодирования : Lavf57.25.100
Библиотека кодирования : Lavf57.25.100 / Lavf57.25.100

Видео
Идентификатор : 1
Формат : AVC
Формат/Информация : Advanced Video Codec
Профиль формата : High@L4
Параметр CABAC формата : Да
Параметр ReFrames формата : 3 кадра
Идентификатор кодека : V_MPEG4/ISO/AVC
Продолжительность : 4 м. 5 с.
Битрейт : 4020 Кбит/сек
Ширина : 1920 пикселей
Высота : 1080 пикселей
Соотношение сторон : 16:9
Режим частоты кадров : Постоянный
Частота кадров : 25,000 кадров/сек
Цветовое пространство : YUV
Субдискретизация насыщенности : 4:2:0
Битовая глубина : 8 бит
Тип развёртки : Прогрессивная
Бит/(Пиксели*Кадры) : 0.078
Размер потока : 118 Мбайт (89%)
Default : Да
Forced : Нет
DURATION : 00:04:05.360000000

Аудио
Идентификатор : 2
Формат : AC-3
Формат/Информация : Audio Coding 3
Расширение режима : CM (complete main)
Параметр Endianness формата : Big
Идентификатор кодека : A_AC3
Продолжительность : 4 м. 5 с.
Вид битрейта : Постоянный
Битрейт : 384 Кбит/сек
Каналы : 2 канала
Расположение каналов : Front: L R
Частота : 44,1 КГц
Частота кадров : 28,711 кадров/сек (1536 spf)
Метод сжатия : С потерями
Задержка видео : -40 мс.
Размер потока : 11,2 Мбайт (9%)
Язык : unknown
Default : Да
Forced : Нет
DURATION : 00:04:05.342000000

Когда раздача ведётся путём добавления новых серий, при каждом добавлении создётся новый торрент. Чтобы начать докачку новой серии, пользователям необходимо сделать следующее:
(1) остановить скачивание,
(2) удалить старый торрент у себя из клиента (старые серии удалять не надо),
(3) скачать новый торрент и запустить его у себя в клиенте вместо старого, при этом указать клиенту путь в старую папку, куда и должно происходить скачивание новых серий.
Ваш клиент при этом должен произвести хеширование (проверку) старой папки (если не производит сам - помогите ему сделать это), и будет докачивать только те серии, которых у вас ещё нет. Старые серии при этом не удаляются, а продолжают раздаваться!
Eсли вы уже удалили старые серии, то предотвратить повторную закачку старых серий можно, отжав галочку в соответсвующих местах при запуске нового торрента. По возможности, желательно не удалять старые серии как можно дольше, чтобы релизёр не столько продолжал раздавать старые серии, а смог сконцентрироваться на новых.
pb.wtf



Скачать Ленинград - Сборник видеоклипов через торрент http://s16.radikal.ru/i191/1701/6a/0c4755ee9a1d.png Скачать фильм Ленинград - Сборник видеоклипов [34 шт.] через торрент бесплантно в хорошем качестве Треклист Ленинград — Dr. House Ленинград — Про любовь Ленинград — Где моя вода? Ленинград — Властелин ключа Ленинград — ... 9.8 10 37
Info! Золотая раздача, скачанное не засчитывается.
Торрент: Зарегистрирован [2017-11-30 11:51] · скачан: 762 раз
Статус: √ проверено
Размер: 4.7 GB
Как cкачать? Как скачать Ленинград - Сборник видеоклипов через торрент | UTorrent

% Раздел Тема Автор DL S | L
Клипы [ 1.29 GB ] Ленинград - Сборник видеоклипов [2016 Pop HDTVRip 1080p] overpower4dc Скачать
1 | 0


Последний раз редактировалось: bober100 (2017-11-30 11:55), всего редактировалось 3 раз(а)

28-11-2019 20:33  

Отключить всю рекламу на сайте


22-10-2017 14:34 Ленинград - Сборник видеоклипов Скачать торрент  

Спасибо, клипы потрясающие.
Кто не смотрел, настоятельно рекомендую, только естественно без присутствия детей, все таки Ленинград :).pb.wtf



22-10-2017 15:31 Ленинград - Сборник видеоклипов Скачать торрент  

Кто же это интересно смотрит и слушает? Это насколько нужно не уважать себя. чтобы потреблять такое?pb.wtf



22-10-2017 15:41 Ленинград - Сборник видеоклипов Скачать торрент  

olgertson писал(а):

Кто же это интересно смотрит и слушает? Это насколько нужно не уважать себя. чтобы потреблять такое?

чучело, утопи себя унитазе общественного туалетаpb.wtf



15-12-2020 10:49 Ленинград - Сборник видеоклипов Скачать торрент  

Спасибо!pb.wtf



    Дорогой пользователь! Огромная просьба, поблагодарите релизера, оцените раздачу и оставьте свои комментарий, если Вы скачали Ленинград - Сборник видеоклипов через торрент бесплатно! Внесите свою лепту в развитие PiratBit!
    Комментировать посты могут только пользователи прошедшие не сложную регистрацию
    Показать сообщения:    

    Ленинград - Сборник видеоклипов через торрент
    Скачать бесплатно Ленинград - Сборник видеоклипов
    Ленинград - Сборник видеоклипов скачать торрент
    Ленинград - Сборник видеоклипов смотреть онлайн
    Cкачать фильм Ленинград - Сборник видеоклипов бесплатно
    Ленинград - Сборник видеоклипов скачать торрент в хорошем качестве
    Ленинград - Сборник видеоклипов смотреть онлайн бесплатно в хорошем качестве


    Вы не можете начинать темы
    Вы не можете отвечать на сообщения
    Вы не можете редактировать свои сообщения
    Вы не можете удалять свои сообщения
    Вы не можете голосовать в опросах
    Вы не можете прикреплять файлы к сообщениям
    Вы можете скачивать файлы