Всегда рабочее зеркало без VPN и Proxy просто перед .vidak.icu напиши любое слово или цифру, Пример http://ffat.vidak.icu

MVO

2 сезон

1 сезон

1

1 сезон

iTunes

2 сезон

13

1 сезон

Deluxe

pack

Рекомендуем

Пиратка

30

ВАЖНО

RePack

MK11

RePack

jed

RePack

fifa19

RePack

RDR2

RePack

NEED FOR SPEED™ PAYBACK

Кинопоиск HD

6 сезон

 Острые козырьки 6 сезон

Все сериалы

все сериалы на PB.wtf

RePack

FAR CRY 5

Anonymous, нам критически не хватает 5601 руб. на оплату серверов и переферии за Апрель, помоги нам пожалуйста, вся надежда только на тебя. В благодарность мы отключим тебе всю рекламу на сайте!

×
  
Magnet ссылка

Водила / Wheelman (Джереми Раш) [2017, боевик, триллер, WEB-DL 720p] MVO [@MUZOBOZ@] pb.wtf

Водила через торрент pb.wtf

Размер: 2.68 GB | Добавлен: 4 года 7 мес. назад | Торрент скачан:150 раз
Смотреть онлайн Водила | Скачать    Ребята, помогите собрать деньги на оплату серверов!!!

23-10-2017 03:37 Водила Скачать торрент  

Водила / Wheelman
Год выпуска: 2017
Страна: США
Жанр: боевик, триллер
Продолжительность: 01:23:47
Перевод: Любительский (многоголосый) - [@MUZOBOZ@]
Субтитры: отсутствуют

Режиссер: Джереми Раш

rating

В ролях:

Фрэнк Грилло, Кэйтлин Кармайкл, Гаррет Диллахант, Венди Мониз, Джон Ченатьемпо, Слэйн, Уильям Ксифарас, Прешес Уайт, Сет Айотт, Майк Фиерро

Описание:

Водитель, работающий на преступные группировки, после не очень гладко прошедшего ограбления вынужден спасаться от преследователей в машине с украденными деньгами.

Качество: WEB-DL 720p
Формат: MKV
Видео кодек: H.264
Аудио кодек: AC3

Видео: 4189 Кбит/с, 1280x536
Аудио#1: Русский, (AC3, 2 ch, 384 Кбит/с)

скриншот   скриншот   скриншот  

Общее
Уникальный идентификатор : 220516399579409051973473979830798571205 (0xA5E5E9E969A3CB3FA9C664CC5766D6C5)
Полное имя : D:\Wheelman.2017.P.WEB-DL.72Op_KOSHARA.mkv
Формат : Matroska
Версия формата : Version 2
Размер файла : 2,68 Гбайт
Продолжительность : 1 ч. 23 м.
Режим общего битрейта : Переменный
Общий поток : 4575 Кбит/сек
Дата кодирования : UTC 2017-10-22 18:20:55
Программа кодирования : mkvmerge v8.3.0 ('Over the Horizon') 64bit
Библиотека кодирования : libebml v1.3.1 + libmatroska v1.4.2

Видео
Идентификатор : 1
Формат : AVC
Формат/Информация : Advanced Video Codec
Профиль формата : High@L4.1
Параметр CABAC формата : Да
Параметр ReFrames формата : 12 кадров
Идентификатор кодека : V_MPEG4/ISO/AVC
Продолжительность : 1 ч. 23 м.
Вид битрейта : Переменный
Битрейт : 4189 Кбит/сек
Максимальный битрейт : 4600 Кбит/сек
Ширина : 1280 пикселей
Высота : 536 пикселей
Соотношение сторон : 2,40:1
Режим частоты кадров : Постоянный
Частота кадров : 23,976 (24000/1001) кадра/сек
Стандарт вещания : Component
Цветовое пространство : YUV
Субдискретизация насыщенности : 4:2:0
Битовая глубина : 8 бит
Тип развёртки : Прогрессивная
Бит/(Пиксели*Кадры) : 0.255
Размер потока : 2,45 Гбайт (92%)
Default : Да
Forced : Нет
Цветовой диапазон : Limited
Основные цвета : BT.709
Характеристики трансфера : BT.709
Коэффициенты матрицы : BT.709

Аудио
Идентификатор : 2
Формат : AC-3
Формат/Информация : Audio Coding 3
Расширение режима : CM (complete main)
Параметр Endianness формата : Big
Идентификатор кодека : A_AC3
Продолжительность : 1 ч. 23 м.
Вид битрейта : Постоянный
Битрейт : 384 Кбит/сек
Каналы : 2 канала
Расположение каналов : Front: L R
Частота : 48,0 КГц
Частота кадров : 31,250 кадров/сек (1536 spf)
Метод сжатия : С потерями
Размер потока : 230 Мбайт (8%)
Default : Да
Forced : Нет

pb.wtf



Скачать Водила через торрент http://img12.lostpic.net/2017/10/23/dfe1df99579f591afd4847c0176824e5.png Скачать, смотреть онлайн Водила бесплантно в хорошем качестве Описание: Водитель, работающий на преступные группировки, после не очень гладко прошедшего ограбления вынужден спасаться от преследователей ... 10 10 8
Торрент: Зарегистрирован [2017-10-23 03:37] · скачан: 150 раз
Статус: T временная
Размер: 2.68 GB
Как cкачать? Как скачать Водила через торрент | UTorrent

% Раздел Тема Автор DL S | L
Фильмы 2019-2020 [DVDrip, WEB-DLRip, HDrip] (DUB, MVO) [ 1.42 GB ] Под водой / Underwater [2020 фанатастика BDRip] - Twi7ter Скачать
2 | 0
T Фильмы 2019-2020 (Звук TS, Cam, VO, DVO) [ 1.46 GB ] Под водой / Underwater [2020 фанатастика BDRip] VO [Zamez] Twi7ter Скачать
4 | 0
T Релизы по Парсеру [Игры, Сериалы и Фильмы и другое...] [ 3.11 GB ] Водила / Wheelman [2017 WEB-DL 1080p] MVO [@MUZOBOZ@] bober100 Скачать
1 | 0
T Релизы по Парсеру [Игры, Сериалы и Фильмы и другое...] [ 1.46 GB ] Водила / Wheelman [2017 WEB-DLRip] MVO [@MUZOBOZ@] bober100 Скачать
1 | 0
T Фильмы с авторской озвучкой [ 3.28 GB ] Водила / Wheelman [2017 WEBRip 1080p] [AVO] ) killermax2013 Скачать
1 | 0

28-11-2019 20:33  

Отключить всю рекламу на сайте

14-12-2017 17:56 Водила Скачать торрент  

    Дорогой пользователь! Огромная просьба, поблагодарите релизера, оцените раздачу и оставьте свои комментарий, если Вы скачали Водила через торрент бесплатно!
    Комментировать посты могут только пользователи прошедшие не сложную регистрацию
    Показать сообщения:    

    Водила через торрент
    Скачать бесплатно Водила
    Водила скачать торрент
    Водила смотреть онлайн
    Cкачать фильм Водила бесплатно
    Водила скачать торрент в хорошем качестве
    Водила смотреть онлайн бесплатно в хорошем качестве


    Вы не можете начинать темы
    Вы не можете отвечать на сообщения
    Вы не можете редактировать свои сообщения
    Вы не можете удалять свои сообщения
    Вы не можете голосовать в опросах
    Вы не можете прикреплять файлы к сообщениям
    Вы можете скачивать файлы