новый адрес
Ссылка на приватное зеркало всего за 1$. Внимание количество ограничено!!!

iTunes

1+1

iTunes

мы

iTunes

1

iTunes

Чернобыль

iTunes

Ральф против интернета

Лицензия

ПШазам

Лицензия

Оно 2

Лицензия

30
pack

Вам бонус

ВАЖНО

!!Акция!!

Alien_RageХит недели

RePack

Resident Evil 21

ИГРА 18+

pack

RePack

jed

!!Акция!!

Alien_Rage

RePack

fifa19

RePack

Assassins Creed: Odyssey

RePack

NEED FOR SPEED™ PAYBACK

3 сезон

9 сезон

Бесстыжие 9 сезон

Все сериалы

все сериалы на PB.wtf

RePack

FAR CRY 5
Ребята, катастрофически не хватает 1900р. для оплаты серверов за Октябрь (всвязи с блокировками трафик упал в 3 раза), 1-2р., выручайте.
  

Трудное счастье (Александр Столпер) [1958, СССР, драма, DVDRip от AVP Studio] pb.wtf

Трудное счастье через торрент pb.wtf

Размер: 1.09 GB | Добавлен: 2 года назад | Торрент скачан:15 раз
Скачать  

23-10-2017 07:28 Трудное счастье Скачать торрент  

Трудное счастье
Страна: СССР
Производство: Мосфильм

Жанр: драма
Год выпуска: 1958
Продолжительность: 01:37:25

Перевод: Не требуется
Cубтитры: нет
Оригинальная аудиодорожка: русский

Режиссер: Александр Столпер

В ролях:
Михаил Козаков, Валерий Ашуров, Виктор Авдюшко, Евгений Леонов, Нина Головина, Верико Анджапаридзе, Антонина Гунченко, Николай Луценко, Олег Ефремов, Никита Кондратьев, Николай Сморчков, Раднэр Муратов, Виктория Радунская, Виталий Полицеймако, Николай Сергеев, Николай Бубнов, Виктор Яковлев (II), Сергей Шишков, Афанасий Кочетков, Павел Шальнов, Геннадий Сергеев...
Об актёрах подробней

Описание:
В годы гражданской войны, странствуя с родными по степям южной России, цыганенок Коля Нагорный (Михаил Козаков) отбился от табора и попал в русскую деревню. Здесь он встретился с удивительным человеком, открывшим ему глаза на мир. Это был рыжий русский парень (Олег Ефремов), который не стерпел кулацкого произвола и восстал против богатеев.

Источник: DVD5 R5
Качество видео: DVDRip
Формат видео: AVI

Видео: 688x512 (4:3), 25 fps, XviD ~ 1398 kbps avg, 0.159 bit/pixel
Аудио: 48 kHz, Dolby Digital AC3 2.0, 192 kbps

Раздача от:
Общее
Полное имя : Trudnoe.schaste.1958.DVDRip_[New-team]_by_AVP_Studio.avi
Формат : AVI
Формат/Информация : Audio Video Interleave
Размер файла : 1,09 Гбайт
Продолжительность : 1 ч. 37 м.
Общий поток : 1600 Кбит/сек
Программа кодирования : VirtualDubMod 1.5.10.3 | www.virtualdub-fr.org || (build 2550/release)
Библиотека кодирования : VirtualDubMod build 2550/release

Видео
Идентификатор : 0
Формат : MPEG-4 Visual
Профиль формата : Advanced Simple@L5
Параметр BVOP формата : 1
Параметр QPel формата : Нет
Параметр GMC формата : Без точки перехода
Параметр матрицы формата : Выборочная
Идентификатор кодека : XVID
Идентификатор кодека/Подсказка : XviD
Продолжительность : 1 ч. 37 м.
Битрейт : 1398 Кбит/сек
Ширина : 688 пикселей
Высота : 512 пикселей
Соотношение сторон : 4:3
Частота кадров : 25,000 кадров/сек
Цветовое пространство : YUV
Субдискретизация насыщенности : 4:2:0
Битовая глубина : 8 бит
Тип развёртки : Прогрессивная
Метод сжатия : С потерями
Бит/(Пиксели*Кадры) : 0.159
Размер потока : 974 Мбайт (87%)
Библиотека кодирования : XviD 73

Аудио
Идентификатор : 1
Формат : AC-3
Формат/Информация : Audio Coding 3
Параметр Endianness формата : Big
Идентификатор кодека : 2000
Продолжительность : 1 ч. 37 м.
Вид битрейта : Постоянный
Битрейт : 192 Кбит/сек
Каналы : 2 канала
Расположение каналов : Front: L R
Частота : 48,0 КГц
Частота кадров : 31,250 кадров/сек (1536 SPF)
Битовая глубина : 16 бит
Метод сжатия : С потерями
Размер потока : 134 Мбайт (12%)
Выравнивание : Разделение по промежуткам
Продолжительность промежутка : 40 мс. (1,00 видеокадр)
Время предзагрузки промежутка : 500 мс
pb.wtf



Скачать Трудное счастье через торрент http://s46.radikal.ru/i111/1710/4a/e52d0bbaa80e.png Скачать фильм Трудное счастье через торрент бесплантно в хорошем качестве Описание:В годы гражданской войны, странствуя с родными по степям южной России, цыганенок Коля Нагорный (Михаил Козаков) отбился от табора ... 10 10 1
Info! Золотая раздача, скачанное не засчитывается.
Торрент: Зарегистрирован [2017-10-23 07:28] · скачан: 15 раз
Статус: √ проверено
Размер: 1.09 GB
Как cкачать? Как скачать Трудное счастье через торрент | qTorrent

% Раздел Тема Автор DL S | L
Кино СССР [ 1.09 GB ] Трудное счастье [1958 СССР DVDRip-AVC от AVP Studio] AVP Studio Скачать
1 | 0
Кино СССР [ 745 MB ] Трудное счастье [1958 СССР DVDRip от AVP Studio] AVP Studio Скачать
1 | 0
    Дорогой пользователь! Огромная просьба, поблагодарите релизера, оцените раздачу и оставьте свои комментарий, если Вы скачали Трудное счастье через торрент бесплатно! Внесите свою лепту в развитие PiratBit!
    Комментировать посты могут только пользователи прошедшие не сложную регистрацию
    Показать сообщения:    

    Трудное счастье через торрент
    Скачать бесплатно Трудное счастье
    Трудное счастье скачать торрент
    Трудное счастье смотреть онлайн
    Cкачать фильм Трудное счастье бесплатно
    Трудное счастье скачать торрент в хорошем качестве
    Трудное счастье смотреть онлайн бесплатно в хорошем качестве


    Вы не можете начинать темы
    Вы не можете отвечать на сообщения
    Вы не можете редактировать свои сообщения
    Вы не можете удалять свои сообщения
    Вы не можете голосовать в опросах
    Вы не можете прикреплять файлы к сообщениям
    Вы можете скачивать файлы