Присоединяйтесь к нам в Telegram!, здесь всегда актуальный адрес сайта, оперативная поддержка и многое другое!!

>

5.9

iTunes

7.4

iTunes

9.4

1 сезон

1

7.4

2 сезон

7.2

iTunes

7.3

1 сезон

13

6.1

iTunes

8.3

GOG

30

ULTIMATE

pack

9.9

Лицензия

ВАЖНО

ИГРА 18+

pack

7.3

RePack

MK11

7.7

RePack

jed

7.8

RePack

fifa19

8.5

RePack

RDR2

RePack

NEED FOR SPEED™ PAYBACK

5 сезон

9 сезон

Бесстыжие 9 сезон

Все сериалы

все сериалы на PB.wtf

RePack

FAR CRY 5

Anonymous, доброй ночи, мы катастрофически не успеваем собрать деньги на оплату серверов, помогите нам пожалуйста 5,10,15р., для нас важна любая помощь . В качестве благодарности мы отключим Вам всю рекламу на сайте (укажите свой ник в строку Ваше имя)!

×
  
Magnet ссылка

Трудное счастье (Александр Столпер) [1958, СССР, драма, DVDRip-AVC от AVP Studio] pb.wtf

Трудное счастье через торрент pb.wtf

Размер: 1.09 GB | Добавлен: 4 года 1 мес. назад | Торрент скачан:25 раз
Смотреть онлайн Трудное счастье | Скачать    Ребята, помогите собрать деньги на оплату серверов!!!

23-10-2017 07:29 Трудное счастье Скачать торрент  

Трудное счастье
Страна: СССР
Производство: Мосфильм

Жанр: драма
Год выпуска: 1958
Продолжительность: 01:37:25

Перевод: Не требуется
Cубтитры: нет
Оригинальная аудиодорожка: русский

Режиссер: Александр Столпер

В ролях:
Михаил Козаков, Валерий Ашуров, Виктор Авдюшко, Евгений Леонов, Нина Головина, Верико Анджапаридзе, Антонина Гунченко, Николай Луценко, Олег Ефремов, Никита Кондратьев, Николай Сморчков, Раднэр Муратов, Виктория Радунская, Виталий Полицеймако, Николай Сергеев, Николай Бубнов, Виктор Яковлев (II), Сергей Шишков, Афанасий Кочетков, Павел Шальнов, Геннадий Сергеев...
Об актёрах подробней

Описание:
В годы гражданской войны, странствуя с родными по степям южной России, цыганенок Коля Нагорный (Михаил Козаков) отбился от табора и попал в русскую деревню. Здесь он встретился с удивительным человеком, открывшим ему глаза на мир. Это был рыжий русский парень (Олег Ефремов), который не стерпел кулацкого произвола и восстал против богатеев.

Источник: DVD5 R5
Качество видео: DVDRip-AVC
Формат видео: MKV

Видео: 688->742x556 (4:3), 25 fps, H264 ~ 1406 kbps avg, 0.147 bit/pixel
Аудио: 48 kHz, Dolby Digital AC3 2.0, 192 kbps

Раздача от:
Общее
Полное имя : Trudnoe.schaste.1958.DVDRip-AVC_[New-team]_by_AVP_Studio.mkv
Формат : Matroska
Версия формата : Version 2
Размер файла : 1,09 Гбайт
Продолжительность : 1 ч. 37 м.
Общий поток : 1600 Кбит/сек
Дата кодирования : UTC 2017-10-19 13:20:03
Программа кодирования : mkvmerge v6.1.0 ('Old Devil') built on Mar 4 2013 09:10:42
Библиотека кодирования : libebml v1.3.0 + libmatroska v1.4.0

Видео
Идентификатор : 1
Формат : AVC
Формат/Информация : Advanced Video Codec
Профиль формата : High@L4.1
Параметр CABAC формата : Да
Параметр RefFrames формата : 10 кадров
Идентификатор кодека : V_MPEG4/ISO/AVC
Продолжительность : 1 ч. 37 м.
Битрейт : 1406 Кбит/сек
Ширина : 688 пикселей
Высота : 556 пикселей
Соотношение сторон : 4:3
Режим частоты кадров : Постоянный
Частота кадров : 25,000 кадров/сек
Цветовое пространство : YUV
Субдискретизация насыщенности : 4:2:0
Битовая глубина : 8 бит
Тип развёртки : Прогрессивная
Бит/(Пиксели*Кадры) : 0.147
Размер потока : 959 Мбайт (86%)
Библиотека кодирования : x264 core 130 r2273 b3065e6
Настройки программы : cabac=1 / ref=10 / deblock=1:-2:-1 / analyse=0x3:0x113 / me=umh / subme=10 / psy=1 / psy_rd=1.00:0.00 / mixed_ref=1 / me_range=32 / chroma_me=1 / trellis=2 / 8x8dct=1 / cqm=0 / deadzone=21,11 / fast_pskip=1 / chroma_qp_offset=-2 / threads=6 / lookahead_threads=1 / sliced_threads=0 / nr=0 / decimate=0 / interlaced=0 / bluray_compat=0 / constrained_intra=0 / bframes=8 / b_pyramid=2 / b_adapt=2 / b_bias=0 / direct=3 / weightb=1 / open_gop=0 / weightp=2 / keyint=250 / keyint_min=25 / scenecut=40 / intra_refresh=0 / rc=2pass / mbtree=0 / bitrate=1406 / ratetol=1.0 / qcomp=0.60 / qpmin=0 / qpmax=69 / qpstep=4 / cplxblur=20.0 / qblur=0.5 / ip_ratio=1.40 / pb_ratio=1.30 / aq=1:1.00
Default : Да
Forced : Нет

Аудио
Идентификатор : 2
Формат : AC-3
Формат/Информация : Audio Coding 3
Параметр Endianness формата : Big
Идентификатор кодека : A_AC3
Продолжительность : 1 ч. 37 м.
Вид битрейта : Постоянный
Битрейт : 192 Кбит/сек
Каналы : 2 канала
Расположение каналов : Front: L R
Частота : 48,0 КГц
Частота кадров : 31,250 кадров/сек (1536 SPF)
Битовая глубина : 16 бит
Метод сжатия : С потерями
Размер потока : 134 Мбайт (12%)
Default : Да
Forced : Нет
pb.wtf



Скачать Трудное счастье через торрент http://s46.radikal.ru/i111/1710/4a/e52d0bbaa80e.png Скачать, смотреть онлайн Трудное счастье бесплантно в хорошем качестве Описание:В годы гражданской войны, странствуя с родными по степям южной России, цыганенок Коля Нагорный (Михаил Козаков) отбился от табора ... 10 10 1
Info! Золотая раздача, скачанное не засчитывается.
Торрент: Зарегистрирован [2017-10-23 07:29] · скачан: 25 раз
Статус: √ проверено
Размер: 1.09 GB
Как cкачать? Как скачать Трудное счастье через торрент | UTorrent

% Раздел Тема Автор DL S | L
Кино СССР [ 745 MB ] Трудное счастье [1958 СССР DVDRip от AVP Studio] AVP Studio Скачать
1 | 0
Кино СССР [ 1.09 GB ] Трудное счастье [1958 СССР DVDRip от AVP Studio] AVP Studio Скачать
1 | 0

28-11-2019 20:33  

Отключить всю рекламу на сайте

    Дорогой пользователь! Огромная просьба, поблагодарите релизера, оцените раздачу и оставьте свои комментарий, если Вы скачали Трудное счастье через торрент бесплатно!
    Комментировать посты могут только пользователи прошедшие не сложную регистрацию
    Показать сообщения:    

    Трудное счастье через торрент
    Скачать бесплатно Трудное счастье
    Трудное счастье скачать торрент
    Трудное счастье смотреть онлайн
    Cкачать фильм Трудное счастье бесплатно
    Трудное счастье скачать торрент в хорошем качестве
    Трудное счастье смотреть онлайн бесплатно в хорошем качестве


    Вы не можете начинать темы
    Вы не можете отвечать на сообщения
    Вы не можете редактировать свои сообщения
    Вы не можете удалять свои сообщения
    Вы не можете голосовать в опросах
    Вы не можете прикреплять файлы к сообщениям
    Вы можете скачивать файлы