Ссылка на приватное зеркало нашего сайта всего за 1$. Внимание количество ограничено!!!

2 сезон

iTunes

1 сезон

1

iTunes

iTunes

iTunes

1 сезон

RePack

30

ИГРА 18+

pack

ВАЖНО

!!Акция!!

Alien_RageХит недели

RePack

MK11
pack

Забери бонус

RePack

jed

!!Акция!!

Alien_Rage

RePack

fifa19

RePack

Assassins Creed: Odyssey

RePack

NEED FOR SPEED™ PAYBACK

4 сезон

9 сезон

Бесстыжие 9 сезон

Все сериалы

все сериалы на PB.wtf

RePack

FAR CRY 5
  

Сумеречная зона / Twilight Zone: The Movie (Джон Лэндис, Стивен Спилберг, Джо Данте) [1983, ужасы, фантастика, фэнтези, BDRip 1080p by msltel] MVO pb.wtf

Сумеречная зона через торрент pb.wtf

Размер: 11.73 GB | Добавлен: 3 года назад | Торрент скачан:27 раз
Скачать  

23-10-2017 07:55 Сумеречная зона Скачать торрент  

Название: Сумеречная зона. Фильм
Оригинальное название: Twilight Zone: The Movie
Год выпуска: 1983
Страна: США
Жанр: ужасы, фантастика, фэнтези
Продолжительность: 01:41:17
Перевод: профессиональный многоголосый

Режиссер: Джон Лэндис, Стивен Спилберг, Джо Данте
В ролях: Дэн Эйкройд, Альберт Брукс, Вик Морроу, Даг МакГрат, Чарльз Халлахан, Кари Вулфф, Сью Дуган, Дебби Портер, Стивен Уильям

О фильме: Каждый из постановщиков снял свой сегмент для этой ленты. Лэндис предлагает страшноватый пролог и первую новеллу о злобном расисте, которого наказали самым кошмарным образом, какой только можно себе вообразить. Спилберг расскажет о невероятных чудесах омоложения, которые происходят под покровом ночи в доме для престарелых. У Данте припасена поразительная история о странном мальчике со сверхъестественными способностями. Ну а Миллер завершит фильм своим леденящим душу финалом!...



Качество: BDRip 1080p
Формат: MKV
Видео: MPEG-4 AVC, 14.9 Кбит/с, 1920x1080
Аудио 1: русский, AC3, 192 kbps, 2 ch [профессиональный многоголосый]
Аудио 2: английский, DTS, 1509 kbps, 6 ch, 48 kHz [оригинал]
Субтитры: английские
Имеются неименованные главы/чаптеры.
Общее
Уникальный идентификатор : 179165073417000347431558753234469484502 (0x86C9F01FFEDE85C6A9EBDB6AF5E377D6)
Полное имя : D:\Video\Сумеречная зона. Фильм.1983.BDRip.1080p by msltel.mkv
Формат : Matroska
Версия формата : Version 4 / Version 2
Размер файла : 11,7 Гбайт
Продолжительность : 1 ч. 41 м.
Общий поток : 16,6 Мбит/сек
Название фильма : Rip by msltel
Дата кодирования : UTC 2017-10-23 07:11:46
Программа кодирования : mkvmerge v8.2.0 ('World of Adventure') 64bit
Библиотека кодирования : libebml v1.3.1 + libmatroska v1.4.2

Видео
Идентификатор : 1
Формат : AVC
Формат/Информация : Advanced Video Codec
Профиль формата : High@L4.1
Параметр CABAC формата : Да
Параметр RefFrames формата : 4 кадра
Идентификатор кодека : V_MPEG4/ISO/AVC
Продолжительность : 1 ч. 41 м.
Битрейт : 14,9 Мбит/сек
Ширина : 1920 пикселей
Высота : 1080 пикселей
Соотношение сторон : 16:9
Режим частоты кадров : Постоянный
Частота кадров : 23,976 (24000/1001) кадра/сек
Цветовое пространство : YUV
Субдискретизация насыщенности : 4:2:0
Битовая глубина : 8 бит
Тип развёртки : Прогрессивная
Бит/(Пиксели*Кадры) : 0.299
Размер потока : 10,5 Гбайт (90%)
Библиотека кодирования : x264 core 146 r2538 121396c
Настройки программы : cabac=1 / ref=4 / deblock=1:-3:-2 / analyse=0x3:0x113 / me=umh / subme=11 / psy=1 / psy_rd=1.00:0.15 / mixed_ref=1 / me_range=32 / chroma_me=1 / trellis=2 / 8x8dct=1 / cqm=0 / deadzone=21,11 / fast_pskip=0 / chroma_qp_offset=-3 / threads=6 / lookahead_threads=1 / sliced_threads=0 / nr=0 / decimate=1 / interlaced=0 / bluray_compat=0 / constrained_intra=0 / bframes=7 / b_pyramid=2 / b_adapt=2 / b_bias=0 / direct=1 / weightb=1 / open_gop=0 / weightp=2 / keyint=230 / keyint_min=23 / scenecut=40 / intra_refresh=0 / rc_lookahead=40 / rc=crf / mbtree=0 / crf=18.0 / qcomp=0.60 / qpmin=0 / qpmax=69 / qpstep=4 / vbv_maxrate=62500 / vbv_bufsize=78125 / crf_max=0.0 / nal_hrd=none / filler=0 / ip_ratio=1.40 / pb_ratio=1.30 / aq=1:1.00
Язык : English
Default : Да
Forced : Нет

Аудио #1
Идентификатор : 2
Формат : AC-3
Формат/Информация : Audio Coding 3
Параметр Endianness формата : Big
Идентификатор кодека : A_AC3
Продолжительность : 1 ч. 41 м.
Вид битрейта : Постоянный
Битрейт : 192 Кбит/сек
Каналы : 2 канала
Расположение каналов : Front: L R
Частота : 48,0 КГц
Частота кадров : 31,250 кадров/сек (1536 SPF)
Битовая глубина : 16 бит
Метод сжатия : С потерями
Размер потока : 139 Мбайт (1%)
Заголовок : MVO
Язык : Russian
ServiceKind/String : Complete Main
Default : Да
Forced : Нет

Аудио #2
Идентификатор : 3
Формат : DTS
Формат/Информация : Digital Theater Systems
Режим : 16
Параметр Endianness формата : Big
Идентификатор кодека : A_DTS
Продолжительность : 1 ч. 41 м.
Вид битрейта : Постоянный
Битрейт : 1509 Кбит/сек
Каналы : 6 каналов
Расположение каналов : Front: L C R, Side: L R, LFE
Частота : 48,0 КГц
Частота кадров : 93,750 кадра/сек (512 SPF)
Битовая глубина : 16 бит
Метод сжатия : С потерями
Размер потока : 1,07 Гбайт (9%)
Заголовок : original
Язык : English
Default : Нет
Forced : Нет

Текст
Идентификатор : 4
Формат : UTF-8
Идентификатор кодека : S_TEXT/UTF8
Идентификатор кодека/Информация : UTF-8 Plain Text
Продолжительность : 1 ч. 40 м.
Битрейт : 58 бит/сек
ElementCount : 1295
Размер потока : 43,0 Кбайт (0%)
Заголовок : английские
Язык : English
Default : Нет
Forced : Нет

Меню
00:00:00.000 : en:00:00:00.000
00:05:32.165 : en:00:05:32.165
00:08:07.487 : en:00:08:07.487
00:12:33.252 : en:00:12:33.252
00:18:45.624 : en:00:18:45.624
00:21:05.764 : en:00:21:05.764
00:24:05.444 : en:00:24:05.444
00:26:38.597 : en:00:26:38.597
00:29:23.095 : en:00:29:23.095
00:35:54.486 : en:00:35:54.486
00:39:35.540 : en:00:39:35.540
00:42:30.214 : en:00:42:30.214
00:47:34.685 : en:00:47:34.685
00:50:01.999 : en:00:50:01.999
00:54:30.267 : en:00:54:30.267
00:58:11.154 : en:00:58:11.154
01:01:12.669 : en:01:01:12.669
01:03:48.158 : en:01:03:48.158
01:07:18.201 : en:01:07:18.201
01:09:43.179 : en:01:09:43.179
01:13:43.419 : en:01:13:43.419
01:17:59.174 : en:01:17:59.174
01:23:46.688 : en:01:23:46.688
01:26:44.366 : en:01:26:44.366
01:31:04.125 : en:01:31:04.125
01:33:16.257 : en:01:33:16.257
01:35:26.888 : en:01:35:26.888
pb.wtf



Скачать Сумеречная зона через торрент http://s018.radikal.ru/i514/1710/8b/ddefbe729191.jpg Скачать фильм Сумеречная зона через торрент бесплантно в хорошем качестве О фильме: Каждый из постановщиков снял свой сегмент для этой ленты. Лэндис предлагает страшноватый пролог и первую новеллу о злобном ... 5 10 1
Info! Золотая раздача, скачанное не засчитывается.
Торрент: Зарегистрирован [2017-10-23 07:55] · скачан: 27 раз
Статус: √ проверено
Размер: 11.73 GB
Как cкачать? Как скачать Сумеречная зона через торрент | qTorrent

% Раздел Тема Автор DL S | L
Фильмы [HD 720p, 1080p] (Хороший звук DUB, MVO) [ 4.9 GB ] Сумеречная зона / Twilight Zone: The Movie [1983 BDRip 720p by msltel] MVO msltel Скачать
1 | 0
Фильмы до 2000 г. [ 2.18 GB ] Сумеречная зона: Фильм / Twilight Zone: The Movie [1983 BDRip-AVC] MVO koenig Скачать
1 | 0

28-11-2019 20:33  

Отключить всю рекламу на сайте

    Дорогой пользователь! Огромная просьба, поблагодарите релизера, оцените раздачу и оставьте свои комментарий, если Вы скачали Сумеречная зона через торрент бесплатно! Внесите свою лепту в развитие PiratBit!
    Комментировать посты могут только пользователи прошедшие не сложную регистрацию
    Показать сообщения:    

    Сумеречная зона через торрент
    Скачать бесплатно Сумеречная зона
    Сумеречная зона скачать торрент
    Сумеречная зона смотреть онлайн
    Cкачать фильм Сумеречная зона бесплатно
    Сумеречная зона скачать торрент в хорошем качестве
    Сумеречная зона смотреть онлайн бесплатно в хорошем качестве


    Вы не можете начинать темы
    Вы не можете отвечать на сообщения
    Вы не можете редактировать свои сообщения
    Вы не можете удалять свои сообщения
    Вы не можете голосовать в опросах
    Вы не можете прикреплять файлы к сообщениям
    Вы можете скачивать файлы