Ссылка на приватное зеркало нашего сайта всего за 1$. Внимание количество ограничено!!!

2 сезон

iTunes

1 сезон

1

2 сезон

2 сезон

iTunes

1 сезон

RePack

30

Ultimate

ВАЖНО

ИГРА 18+

pack

RePack

MK11
pack

Забери бонус

RePack

jed

!!Акция!!

Alien_Rage

RePack

fifa19

RePack

Assassins Creed: Odyssey

RePack

NEED FOR SPEED™ PAYBACK

4 сезон

9 сезон

Бесстыжие 9 сезон

Все сериалы

все сериалы на PB.wtf

RePack

FAR CRY 5
  

Хроники Шаннары / The Shannara Chronicles / Сезон 2 / Серии 1-10 из 10 (Брэд Тернер, Джонатан Либесман, Джеймс Маршалл) [2017, фантастика, фэнтези, приключения, WEBRip] MVO [Jaskier] pb.wtf

Хроники Шаннары через торрент pb.wtf

Размер: 5.37 GB | Добавлен: 2 года 11 мес. назад | Торрент скачан:55 раз
Скачать  

24-10-2017 03:43 Хроники Шаннары Скачать торрент  

Хроники Шаннары / The Shannara Chronicles

Информация о фильме:

Год выпуска: 2017
Страна: США
Жанр: фантастика, фэнтези, приключения
Продолжительность: ~ 00:45:00
Перевод: Профессиональный (многоголосый) | Jaskier
Субтитры: отсутствуют

Режиссер: Брэд Тернер, Джонатан Либесман, Джеймс Маршалл

rating

В ролях:

Остин Роберт Батлер, Поппи Дрейтон, Ивана Бакеро, Ману Беннетт, Аарон Якубенко, Эмилия Бёрнс, Джон Рис-Дэвис, Маркус Ванко, Брук Уильямс, Дэниэл МакФерсон и др.

Описание:

Давным-давно эльфийские маги заключили всё зло мира Четырёх земель в параллельную вселенную, Запрет. Покой эльфов, людей и гномов охраняет Волшебное дерево Элькрис. Год назад эльфийская принцесса Амбель, полуэльф Вил, последний потомок рода Шаннары, и скиталица Эритрия дорогой ценой спасли Элькрис и Четыре земли от гибели. Однако силы тьмы не сдаются и снова ищут возможность покинуть Запрет и жестоко отомстить выжившим спасителям мира. А значит, старым друзьям предстоит объединиться и вновь противостоять не только демонам, но и тем, кто считает, что магию нужно искоренить.

Информация о файле:

Качество: WEBRip
Формат: AVI
Видео кодек: XviD
Аудио кодек: MP3

Видео: ~ 1500 kbps, 720x400
Аудио#1: RU: MP3, 2 ch, 128 kbps
Аудио#2: EN: MP3, 2 ch, 128 kbps


скриншот   скриншот   скриншот  

Общее
Полное имя : D:\The Shannara Chronicles. Season 2 (WEBRip l 400p l Jaskier)\The.Shannara.Chronicles.S02E01.WEBRip.Rus.Eng.Jaskier.avi
Формат : AVI
Формат/Информация : Audio Video Interleave
Размер файла : 550 Мбайт
Продолжительность : 43 м. 31 с.
Общий поток : 1768 Кбит/сек
Программа кодирования : VirtualDubMod 1.5.10.3 | www.virtualdub-fr.org || (build 2550/release)
Библиотека кодирования : VirtualDubMod build 2550/release

Видео
Идентификатор : 0
Формат : MPEG-4 Visual
Профиль формата : Advanced Simple@L5
Параметр BVOP формата : 1
Параметр QPel формата : Нет
Параметр GMC формата : Без точки перехода
Параметр матрицы формата : Default (MPEG)
Идентификатор кодека : XVID
Идентификатор кодека/Подсказка : XviD
Продолжительность : 43 м. 31 с.
Битрейт : 1498 Кбит/сек
Ширина : 720 пикселей
Высота : 400 пикселей
Соотношение сторон : 16:9
Частота кадров : 23,976 (23976/1000) кадра/сек
Цветовое пространство : YUV
Субдискретизация насыщенности : 4:2:0
Битовая глубина : 8 бит
Тип развёртки : Прогрессивная
Метод сжатия : С потерями
Бит/(Пиксели*Кадры) : 0.217
Размер потока : 466 Мбайт (85%)
Библиотека кодирования : XviD 73

Аудио #1
Идентификатор : 1
Формат : MPEG Audio
Версия формата : Version 1
Профиль формата : Layer 3
Режим : Joint stereo
Расширение режима : MS Stereo
Идентификатор кодека : 55
Идентификатор кодека/Подсказка : MP3
Продолжительность : 43 м. 31 с.
Вид битрейта : Постоянный
Битрейт : 128 Кбит/сек
Каналы : 2 канала
Частота : 48,0 КГц
Метод сжатия : С потерями
Размер потока : 39,9 Мбайт (7%)
Выравнивание : Соединение по промежуткам
Продолжительность промежутка : 42 мс. (1,00 видеокадр)
Время предзагрузки промежутка : 504 мс.

Аудио #2
Идентификатор : 2
Формат : MPEG Audio
Версия формата : Version 1
Профиль формата : Layer 3
Режим : Joint stereo
Расширение режима : MS Stereo
Идентификатор кодека : 55
Идентификатор кодека/Подсказка : MP3
Продолжительность : 43 м. 31 с.
Вид битрейта : Постоянный
Битрейт : 128 Кбит/сек
Каналы : 2 канала
Частота : 48,0 КГц
Метод сжатия : С потерями
Размер потока : 39,9 Мбайт (7%)
Выравнивание : Соединение по промежуткам
Продолжительность промежутка : 42 мс. (1,00 видеокадр)
Время предзагрузки промежутка : 504 мс.

Когда раздача ведётся путём добавления новых серий, при каждом добавлении создётся новый торрент. Чтобы начать докачку новой серии, пользователям необходимо сделать следующее:
(1) остановить скачивание,
(2) удалить старый торрент у себя из клиента (старые серии удалять не надо),
(3) скачать новый торрент и запустить его у себя в клиенте вместо старого, при этом указать клиенту путь в старую папку, куда и должно происходить скачивание новых серий.
Ваш клиент при этом должен произвести хеширование (проверку) старой папки (если не производит сам - помогите ему сделать это), и будет докачивать только те серии, которых у вас ещё нет. Старые серии при этом не удаляются, а продолжают раздаваться!
Eсли вы уже удалили старые серии, то предотвратить повторную закачку старых серий можно, отжав галочку в соответсвующих местах при запуске нового торрента. По возможности, желательно не удалять старые серии как можно дольше, чтобы релизёр не столько продолжал раздавать старые серии, а смог сконцентрироваться на новых.
pb.wtf



Скачать Хроники Шаннары через торрент http://s019.radikal.ru/i620/1710/38/53e14935a6df.png Скачать фильм Хроники Шаннары через торрент бесплантно в хорошем качестве Описание: Давным-давно эльфийские маги заключили всё зло мира Четырёх земель в параллельную вселенную, Запрет. Покой эльфов, людей и гномов ... 9.8 10 13
Торрент: Зарегистрирован [2017-11-29 03:27] · скачан: 55 раз
Статус: √ проверено
Размер: 5.37 GB
Как cкачать? Как скачать Хроники Шаннары через торрент | qTorrent

% Раздел Тема Автор DL S | L
Зарубежные сериалы [ 11.66 GB ] Хроники Шаннары / The Shannara Chronicles / Сезон: 2 / Серии: 1-10 из 10 [2017 WEBRip 720p] MVO [Jaskier] bober100 Скачать
1 | 0
Зарубежные сериалы [ 5.37 GB ] Хроники Шаннары / The Shannara Chronicles / Сезон 2 / Серии 1-10 из 10 [2017 WEB-DLRip] MVO [NewStudio] bober100 Скачать
1 | 0
Зарубежные сериалы [ 4.96 GB ] Хроники Шаннары / The Shannara Chronicles / Сезон 2 / Серии 1-10 из 10 [2017 WEB-DLRip] MVO [LostFilm] от qqss44 Russian Mafia Скачать
1 | 0
Зарубежные сериалы [ 11.15 GB ] Хроники Шаннары / The Shannara Chronicles / Сезон 2 / Серии 1-10 из 10 [2017 WEB-DL 720p] MVO [Alexfilm] bober100 Скачать
1 | 0
Зарубежные сериалы [ 5.71 GB ] Хроники Шаннары / The Shannara Chronicles / Сезон 2 / Серии 1-10 из 10 [2017 WEBRip] MVO [BaibaKo] bober100 Скачать
1 | 0
Зарубежные сериалы [ 30.3 GB ] Хроники Шаннары / The Shannara Chronicles / Сезон 2 / Серии 1-10 из 10 [2017 WEBRip 1080p] MVO [Jaskier] bober100 Скачать
1 | 0
Зарубежные сериалы [ 5.03 GB ] Хроники Шаннары / The Shannara Chronicles / Сезон 2 / Серии 1-10 из 10 [2017 WEB-DLRip] MVO [AlexFilm] bober100 Скачать
1 | 1

28-11-2019 20:33  

Отключить всю рекламу на сайте

29-11-2017 07:13 Хроники Шаннары Скачать торрент  

Хроники НАШАРУ....))))))))))pb.wtf



29-11-2017 20:28 Хроники Шаннары Скачать торрент  

Даже и не стал пытатьсяpb.wtf



30-11-2017 02:06 Хроники Шаннары Скачать торрент  

bolvi68 писал(а):

Хроники НАШАРУ....))))))))))

колхозники на нары)))
зы. честно пытался. серии на 4 первого сезона задался вопросом: нахрена я эту муру смотрюpb.wtf



    Дорогой пользователь! Огромная просьба, поблагодарите релизера, оцените раздачу и оставьте свои комментарий, если Вы скачали Хроники Шаннары через торрент бесплатно! Внесите свою лепту в развитие PiratBit!
    Комментировать посты могут только пользователи прошедшие не сложную регистрацию
    Показать сообщения:    

    Хроники Шаннары через торрент
    Скачать бесплатно Хроники Шаннары
    Хроники Шаннары скачать торрент
    Хроники Шаннары смотреть онлайн
    Cкачать фильм Хроники Шаннары бесплатно
    Хроники Шаннары скачать торрент в хорошем качестве
    Хроники Шаннары смотреть онлайн бесплатно в хорошем качестве


    Вы не можете начинать темы
    Вы не можете отвечать на сообщения
    Вы не можете редактировать свои сообщения
    Вы не можете удалять свои сообщения
    Вы не можете голосовать в опросах
    Вы не можете прикреплять файлы к сообщениям
    Вы можете скачивать файлы