Всегда рабочее зеркало без VPN и Proxy просто перед .vidak.icu напиши любое слово или цифру, Пример http://nfwb.vidak.icu

MVO

2 сезон

2 сезон

1

1 сезон

iTunes

2 сезон

13

1 сезон

Deluxe

pack

Рекомендуем

Пиратка

30

ВАЖНО

RePack

MK11

RePack

jed

RePack

fifa19

RePack

RDR2

RePack

NEED FOR SPEED™ PAYBACK

Кинопоиск HD

6 сезон

 Острые козырьки 6 сезон

Все сериалы

все сериалы на PB.wtf

RePack

FAR CRY 5

Anonymous, нам критически не хватает 5601 руб. на оплату серверов и переферии за Апрель, помоги нам пожалуйста, вся надежда только на тебя. В благодарность мы отключим тебе всю рекламу на сайте!

×
  
Magnet ссылка

Плохой день, чтобы свести счеты / Bad Day for the Cut (Крис Боф) [2017, триллер, WEB-DL 1080p] MVO [MUZOBOZ] pb.wtf

Плохой день, чтобы свести счеты через торрент pb.wtf

Размер: 3.68 GB | Добавлен: 4 года 6 мес. назад | Торрент скачан:76 раз
Смотреть онлайн Плохой день, чтобы свести счеты | Скачать    Ребята, помогите собрать деньги на оплату серверов!!!

24-10-2017 06:25 Плохой день, чтобы свести счеты Скачать торрент  

Плохой день, чтобы свести счеты / Bad Day for the Cut
Год выпуска: 2017
Страна: Великобритания
Жанр: триллер
Продолжительность: 01:40:27
Перевод: Любительский (многоголосый) | MUZOBOZ
Субтитры: отсутствуют

Режиссер: Крис Боф

rating

В ролях:

Найджел О’Нилл, Сьюзэн Линч, Юзеф Павловский, Стюарт Грэхэм, Дэвид Пирс, Анна Прухняк, Стелла МакКаскер, Йен МакЭлхинни, Брайан Миллиган, Шаши Рэми

Описание:

Ирландский фермер, живущий со своей матерью, отправляется на миссию мести, когда старушку убивают. На своем пути он встречается с преступной организацией и неприятной правдой о прошлом.

Качество: WEB-DL 1080p
Формат: MKV
Видео кодек: H.264
Аудио кодек: AC3

Видео: 1920x802, 23.976 fps, 4858 Кбит/с
Аудио: 384 kb/s, 2 ch, 48.0 KHz

скриншот   скриншот   скриншот  

Общее
Уникальный идентификатор : 240524440772420209346315968916844904308 (0xB4F352813548F9459B6FA9070A62FF74)
Полное имя : D:\Bad.Day.for.the.Cut.2017.P.WEB-DL.1O8Op_KOSHARA.mkv
Формат : Matroska
Версия формата : Version 2
Размер файла : 3,68 Гбайт
Продолжительность : 1 ч. 40 м.
Режим общего битрейта : Переменный
Общий поток : 5244 Кбит/сек
Дата кодирования : UTC 2017-10-23 16:58:50
Программа кодирования : mkvmerge v8.3.0 ('Over the Horizon') 64bit
Библиотека кодирования : libebml v1.3.1 + libmatroska v1.4.2

Видео
Идентификатор : 1
Формат : AVC
Формат/Информация : Advanced Video Codec
Профиль формата : High@L4.1
Параметр CABAC формата : Да
Параметр ReFrames формата : 5 кадров
Идентификатор кодека : V_MPEG4/ISO/AVC
Продолжительность : 1 ч. 40 м.
Вид битрейта : Переменный
Битрейт : 4858 Кбит/сек
Максимальный битрейт : 5500 Кбит/сек
Ширина : 1920 пикселей
Высота : 802 пикселя
Соотношение сторон : 2,40:1
Режим частоты кадров : Постоянный
Частота кадров : 23,976 (24000/1001) кадра/сек
Стандарт вещания : Component
Цветовое пространство : YUV
Субдискретизация насыщенности : 4:2:0
Битовая глубина : 8 бит
Тип развёртки : Прогрессивная
Бит/(Пиксели*Кадры) : 0.132
Размер потока : 3,41 Гбайт (93%)
Default : Да
Forced : Нет
Цветовой диапазон : Limited
Основные цвета : BT.709
Характеристики трансфера : BT.709
Коэффициенты матрицы : BT.709

Аудио
Идентификатор : 2
Формат : AC-3
Формат/Информация : Audio Coding 3
Расширение режима : CM (complete main)
Параметр Endianness формата : Big
Идентификатор кодека : A_AC3
Продолжительность : 1 ч. 40 м.
Вид битрейта : Постоянный
Битрейт : 384 Кбит/сек
Каналы : 2 канала
Расположение каналов : Front: L R
Частота : 48,0 КГц
Частота кадров : 31,250 кадров/сек (1536 spf)
Метод сжатия : С потерями
Размер потока : 276 Мбайт (7%)
Default : Да
Forced : Нет

pb.wtf



Скачать Плохой день, чтобы свести счеты через торрент http://img12.lostpic.net/2017/10/24/cecde5bbcb80b2ff4f2558e82840668c.png Скачать, смотреть онлайн Плохой день, чтобы свести счеты бесплантно в хорошем качестве Описание: Ирландский фермер, живущий со своей матерью, отправляется на миссию мести, когда старушку убивают. На своем пути он встречается с ... 7 10 6
Торрент: Зарегистрирован [2017-10-24 06:25] · скачан: 76 раз
Статус: T временная
Размер: 3.68 GB
Как cкачать? Как скачать Плохой день, чтобы свести счеты через торрент | UTorrent

% Раздел Тема Автор DL S | L
T Релизы по Парсеру [Игры, Сериалы и Фильмы и другое...] [ 1.36 GB ] Плохой день чтобы свести счеты / Bad Day for the Cut [2017 WEB-DLRip Любительский | MUZOBOZ] oleg8 Скачать
1 | 0

28-11-2019 20:33  

Отключить всю рекламу на сайте

14-12-2017 17:56 Плохой день, чтобы свести счеты Скачать торрент  

    Дорогой пользователь! Огромная просьба, поблагодарите релизера, оцените раздачу и оставьте свои комментарий, если Вы скачали Плохой день, чтобы свести счеты через торрент бесплатно!
    Комментировать посты могут только пользователи прошедшие не сложную регистрацию
    Показать сообщения:    

    Плохой день, чтобы свести счеты через торрент
    Скачать бесплатно Плохой день, чтобы свести счеты
    Плохой день, чтобы свести счеты скачать торрент
    Плохой день, чтобы свести счеты смотреть онлайн
    Cкачать фильм Плохой день, чтобы свести счеты бесплатно
    Плохой день, чтобы свести счеты скачать торрент в хорошем качестве
    Плохой день, чтобы свести счеты смотреть онлайн бесплатно в хорошем качестве


    Вы не можете начинать темы
    Вы не можете отвечать на сообщения
    Вы не можете редактировать свои сообщения
    Вы не можете удалять свои сообщения
    Вы не можете голосовать в опросах
    Вы не можете прикреплять файлы к сообщениям
    Вы можете скачивать файлы