новый адрес пиратбит piratbit
Мега распродажа FORZA HORIZON 4 ULTIMATE+ВСЕ DLC+ОНЛАЙН всего за 499р. 349 руб. (супер цена). Внимание количество ограничено!!!

iTunes

1+1

iTunes

мы

iTunes

1

iTunes

Чернобыль

iTunes

Ральф против интернета

Лицензия

ПШазам

Лицензия

Игра престолов

Лицензия

30
pack

ВАЖНО

!!Акция!!

Alien_RageХит недели

RePack

Resident Evil 21

ИГРА 18+

pack

RePack

Metro:Exodus

!!Акция!!

Alien_Rage

RePack

fifa19

RePack

Assassins Creed: Odyssey

RePack

NEED FOR SPEED™ PAYBACK

3 сезон

9 сезон

Бесстыжие 9 сезон

Все сериалы

все сериалы на PB.wtf

RePack

FAR CRY 5
Ребята, катастрофически не хватает 1900р. для оплаты серверов за Октябрь (всвязи с блокировками трафик упал в 3 раза), 1-2р., выручайте.
  

Неотправленное письмо (Михаил Калатозов) [1959, СССР, драма, приключения, BDRip от AVP Studio] pb.wtf

Неотправленное письмо через торрент pb.wtf

Размер: 746 MB | Добавлен: 2 года назад | Торрент скачан:22 раза
Скачать  

24-10-2017 10:57 Неотправленное письмо Скачать торрент  

Неотправленное письмо
Страна: СССР
Производство: Мосфильм

Жанр: драма, приключения
Год выпуска: 1959
Продолжительность: 01:35:54

Перевод: Не требуется
Cубтитры: нет
Оригинальная аудиодорожка: русский

Режиссер: Михаил Калатозов

В ролях:
Иннокентий Смоктуновский, Татьяна Самойлова, Василий Ливанов, Евгений Урбанский...
Об актёрах подробней

Описание:
Их было четверо – начальник поисковой партии Константин Сабинин (Иннокентий Смоктуновский), проводник Сергей (Евгений Урбанский) и два геолога – Таня (Татьяна Самойлова) и Андрей (Василий Ливанов), только что окончившие институт. В течение многих дней они упорно вели поиски алмазов. Приближалась осень. Всё тяжелее становится таёжная походная жизнь. На исходе продовольствие. Надо кончать работу и ни с чем возвращаться в Москву. И вот когда дальнейшие поиски казались бессмысленными, Таня нашла алмазы.

Источник: BDRemux 1080p
Качество видео: BDRip
Формат видео: AVI

Видео: 576x432 (4:3), 23,976 fps, XviD ~ 946 kbps avg, 0.159 bit/pixel
Аудио: 48 kHz, MP3 2.0, 128 kbps

Раздача от:
Общее
Полное имя : Neotpravlennoe.pismo.1959.BDRip-745_[New-team]_by_AVP_Studio.avi
Формат : AVI
Формат/Информация : Audio Video Interleave
Размер файла : 746 Мбайт
Продолжительность : 1 ч. 35 м.
Общий поток : 1087 Кбит/сек

Видео
Идентификатор : 0
Формат : MPEG-4 Visual
Профиль формата : Advanced Simple@L5
Параметр BVOP формата : 1
Параметр QPel формата : Нет
Параметр GMC формата : Без точки перехода
Параметр матрицы формата : Выборочная
Идентификатор кодека : XVID
Идентификатор кодека/Подсказка : XviD
Продолжительность : 1 ч. 35 м.
Битрейт : 946 Кбит/сек
Ширина : 576 пикселей
Высота : 432 пикселя
Соотношение сторон : 4:3
Частота кадров : 23,976 (23976/1000) кадра/сек
Цветовое пространство : YUV
Субдискретизация насыщенности : 4:2:0
Битовая глубина : 8 бит
Тип развёртки : Прогрессивная
Метод сжатия : С потерями
Бит/(Пиксели*Кадры) : 0.159
Размер потока : 649 Мбайт (87%)
Библиотека кодирования : XviD 73

Аудио
Идентификатор : 1
Формат : MPEG Audio
Версия формата : Version 1
Профиль формата : Layer 3
Идентификатор кодека : 55
Идентификатор кодека/Подсказка : MP3
Продолжительность : 1 ч. 35 м.
Вид битрейта : Постоянный
Битрейт : 128 Кбит/сек
Каналы : 2 канала
Частота : 48,0 КГц
Метод сжатия : С потерями
Размер потока : 87,8 Мбайт (12%)
Выравнивание : Соединение по промежуткам
Продолжительность промежутка : 24 мс. (0,58 видеокадр)
pb.wtf



Скачать Неотправленное письмо через торрент http://s019.radikal.ru/i611/1710/73/3f4b158ef46d.png Скачать фильм Неотправленное письмо через торрент бесплантно в хорошем качестве Описание:Их было четверо – начальник поисковой партии Константин Сабинин (Иннокентий Смоктуновский), проводник Сергей (Евгений Урбанский) и ... 5 10 1
Info! Золотая раздача, скачанное не засчитывается.
Торрент: Зарегистрирован [2017-10-24 10:57] · скачан: 22 раз
Статус: √ проверено
Размер: 746 MB
Как cкачать? Как скачать Неотправленное письмо через торрент | qTorrent

% Раздел Тема Автор DL S | L
Кино СССР [ 2.18 GB ] Неотправленное письмо [1959 СССР BDRip-AVC от AVP Studio] AVP Studio Скачать
1 | 0
Кино СССР [ 2.9 GB ] Неотправленное письмо [1959 СССР BDRip 720p от AVP Studio] AVP Studio Скачать
1 | 0
Кино СССР [ 1.08 GB ] Неотправленное письмо [1959 СССР BDRip от AVP Studio] AVP Studio Скачать
1 | 0
Документальные фильмы и телепередачи [ 451 MB ] Неотправленные письма [2013 документальный DVDRip Оригинал] metanoia Скачать
1 | 0


>> Регистрируемся здесь <<






Отзывы и комментарии о схеме читаем и пишем здесь: ---> Отзывы и комментарии о схеме

Новые благодарочки в телеграм довольных пользователей:
скриншот   скриншот   скриншот   скриншот   скриншот
    Дорогой пользователь! Огромная просьба, поблагодарите релизера, оцените раздачу и оставьте свои комментарий, если Вы скачали Неотправленное письмо через торрент бесплатно! Внесите свою лепту в развитие PiratBit!
    Комментировать посты могут только пользователи прошедшие не сложную регистрацию
    Показать сообщения:    

    Неотправленное письмо через торрент
    Скачать бесплатно Неотправленное письмо
    Неотправленное письмо скачать торрент
    Неотправленное письмо смотреть онлайн
    Cкачать фильм Неотправленное письмо бесплатно
    Неотправленное письмо скачать торрент в хорошем качестве
    Неотправленное письмо смотреть онлайн бесплатно в хорошем качестве


    Вы не можете начинать темы
    Вы не можете отвечать на сообщения
    Вы не можете редактировать свои сообщения
    Вы не можете удалять свои сообщения
    Вы не можете голосовать в опросах
    Вы не можете прикреплять файлы к сообщениям
    Вы можете скачивать файлы