новый адрес
Ссылка на приватное зеркало всего за 1$. Внимание количество ограничено!!!

iTunes

1+1

iTunes

мы

WEB-DL

1

iTunes

Чернобыль

iTunes

Ральф против интернета

Лицензия

ПШазам

Лицензия

Оно 2

Лицензия

30
pack

Вам бонус

ВАЖНО

!!Акция!!

Alien_RageХит недели

RePack

Resident Evil 21

ИГРА 18+

pack

RePack

jed

!!Акция!!

Alien_Rage

RePack

fifa19

RePack

Assassins Creed: Odyssey

RePack

NEED FOR SPEED™ PAYBACK

3 сезон

9 сезон

Бесстыжие 9 сезон

Все сериалы

все сериалы на PB.wtf

RePack

FAR CRY 5
Ребята, катастрофически не хватает 1900р. для оплаты серверов за Октябрь (всвязи с блокировками трафик упал в 3 раза), 1-2р., выручайте.
  

Отпуск на Майорке / Brevi amori a Palma di Majorca (Джорджо Бьянки) [1959 г., Комедия, DVDRip-AVC, Профессиональный (многоголосый)] от ExKinoRay pb.wtf

Отпуск на Майорке через торрент pb.wtf

Размер: 2.71 GB | Добавлен: 2 года 1 мес. назад | Торрент скачан:20 раз
Скачать  

24-10-2017 15:07 Отпуск на Майорке Скачать торрент  

Отпуск на Майорке / Brevi amori a Palma di Majorca
Год выпуска: 1959
Страна: Италия, Испания
Жанр: Комедия
Продолжительность: 01:39:49
Перевод: Профессиональный (многоголосый)

Режиссер: Джорджо Бьянки

Премьера в мире: 2 декабря 1959

rating

В ролях: Альберто Сорди, Джино Черви, Дориан Грей, Белинда Ли, Антонио Чифарелло, Винсент Парра, Джулио Парадизи, Палома Валдес, Луис Пеня, Джулио Маркетти, Патриция Делла Ровере, Мерседес Алонсо

Описание: Двое итальянцев отправляются на Майорку в надежде подцепить пару иноземных красавиц. Но незадачливым плэйбоям чертовски не везет. Кажется, на пляже появляются только их соотечественницы с родителями, да капризные содержанки.

Доп. информация: Перевод: Профессиональный многоголосый (5-й канал СПб)

Качество: DVDRip-AVC
Формат: MKV
Видео кодек: MPEG4
Аудио кодек: AC3
Видео: MPEG-4 AVC, 3500 Кбит/с, 708x428@1006x428, 25 кадров/сек
Аудио#1: Русский (AC3, 2 ch, 192 Кбит/с, 48 КГц)
Аудио#2: Итальянский (AC3, 2 ch, 192 Кбит/с, 48 КГц)
Релиз от:




raw [info]: 708x428p 64:45 @ 25/1 fps (cfr)
x264 [info]: using SAR=64/45
x264 [info]: using cpu capabilities: MMX2 SSE2Fast LZCNT
x264 [info]: profile High, level 4.1
x264 [info]: frame I:740 Avg QP:19.39 size: 71110
x264 [info]: frame P:30393 Avg QP:21.78 size: 35003
x264 [info]: frame B:118593 Avg QP:24.13 size: 12681
x264 [info]: consecutive B-frames: 0.9% 1.5% 7.6% 17.1% 10.3% 57.2% 2.9% 1.2% 0.7% 0.2% 0.1% 0.1% 0.0% 0.0% 0.0% 0.0% 0.1%
-----
Общее
Уникальный идентификатор : 216440286583818023692570506612441254938 (0xA2D4E20669B37358B9DAA7898D428C1A)
Полное имя : D:\Relizes\Otpusk.Na.Majorce.1960.DVDRip-AVC.ExKinoRay.mkv
Формат : Matroska
Версия формата : Version 2
Размер файла : 2,71 Гбайт
Продолжительность : 1 ч. 39 м.
Общий поток : 3886 Кбит/сек
Дата кодирования : UTC 2017-10-24 13:06:31
Программа кодирования : mkvmerge v7.8.0 ('River Man') 32bit built on Apr 3 2015 12:11:22
Библиотека кодирования : libebml v1.3.1 + libmatroska v1.4.2

Видео
Идентификатор : 1
Формат : AVC
Формат/Информация : Advanced Video Codec
Профиль формата : High@L4.1
Параметр CABAC формата : Да
Параметр ReFrames формата : 14 кадров
Идентификатор кодека : V_MPEG4/ISO/AVC
Продолжительность : 1 ч. 39 м.
Битрейт : 3500 Кбит/сек
Ширина : 708 пикселей
Высота : 428 пикселей
Соотношение сторон : 2,35:1
Соотношение сторон в оригинале : 2,35:1
Режим частоты кадров : Постоянный
Частота кадров : 25,000 кадров/сек
Цветовое пространство : YUV
Субдискретизация насыщенности : 4:2:0
Битовая глубина : 8 бит
Тип развёртки : Прогрессивная
Бит/(Пиксели*Кадры) : 0.462
Размер потока : 2,39 Гбайт (88%)
Библиотека кодирования : x264 core 148 r2638 7599210
Настройки программы : cabac=1 / ref=14 / deblock=1:-2:-2 / analyse=0x3:0x133 / me=umh / subme=10 / psy=1 / psy_rd=1.05:0.15 / mixed_ref=1 / me_range=32 / chroma_me=1 / trellis=2 / 8x8dct=1 / cqm=0 / deadzone=21,11 / fast_pskip=0 / chroma_qp_offset=-3 / threads=4 / lookahead_threads=1 / sliced_threads=0 / nr=0 / decimate=0 / interlaced=0 / bluray_compat=0 / constrained_intra=0 / bframes=16 / b_pyramid=2 / b_adapt=2 / b_bias=0 / direct=3 / weightb=1 / open_gop=0 / weightp=2 / keyint=250 / keyint_min=25 / scenecut=40 / intra_refresh=0 / rc=2pass / mbtree=0 / bitrate=3500 / ratetol=1.0 / qcomp=0.60 / qpmin=0 / qpmax=69 / qpstep=4 / cplxblur=20.0 / qblur=0.5 / ip_ratio=1.40 / pb_ratio=1.30 / aq=1:1.00
Язык : English
Default : Да
Forced : Нет
Цветовой диапазон : Limited
Основные цвета : BT.601 NTSC
Характеристики трансфера : BT.601
Коэффициенты матрицы : BT.601

Аудио #1
Идентификатор : 2
Формат : AC-3
Формат/Информация : Audio Coding 3
Расширение режима : CM (complete main)
Параметр Endianness формата : Big
Идентификатор кодека : A_AC3
Продолжительность : 1 ч. 39 м.
Вид битрейта : Постоянный
Битрейт : 192 Кбит/сек
Каналы : 2 канала
Расположение каналов : Front: L R
Частота : 48,0 КГц
Частота кадров : 31,250 кадров/сек (1536 spf)
Метод сжатия : С потерями
Размер потока : 137 Мбайт (5%)
Язык : Russian
Default : Да
Forced : Нет

Аудио #2
Идентификатор : 3
Формат : AC-3
Формат/Информация : Audio Coding 3
Расширение режима : CM (complete main)
Параметр Endianness формата : Big
Идентификатор кодека : A_AC3
Продолжительность : 1 ч. 39 м.
Вид битрейта : Постоянный
Битрейт : 192 Кбит/сек
Каналы : 2 канала
Расположение каналов : Front: L R
Частота : 48,0 КГц
Частота кадров : 31,250 кадров/сек (1536 spf)
Метод сжатия : С потерями
Размер потока : 137 Мбайт (5%)
Язык : Italian
Default : Нет
Forced : Нет

pb.wtf



Скачать Отпуск на Майорке через торрент http://s015.radikal.ru/i330/1710/89/6fd7f4508494.jpg Скачать фильм Отпуск на Майорке через торрент бесплантно в хорошем качестве Описание: Двое итальянцев отправляются на Майорку в надежде подцепить пару иноземных красавиц. Но незадачливым плэйбоям чертовски не везет. ... 10 10 1
Info! Золотая раздача, скачанное не засчитывается.
Торрент: Зарегистрирован [2017-10-24 15:07] · скачан: 20 раз
Статус: √ проверено
Размер: 2.71 GB
Как cкачать? Как скачать Отпуск на Майорке через торрент | qTorrent

28-11-2019 20:33  

Отключить всю рекламу на сайте

24-10-2017 15:57 Отпуск на Майорке Скачать торрент  

Топик был перенесен из форума Оформление раздач (Кино, Видео и ТВ) в форум Классика зарубежного кино


bober100pb.wtf



    Дорогой пользователь! Огромная просьба, поблагодарите релизера, оцените раздачу и оставьте свои комментарий, если Вы скачали Отпуск на Майорке через торрент бесплатно! Внесите свою лепту в развитие PiratBit!
    Комментировать посты могут только пользователи прошедшие не сложную регистрацию
    Показать сообщения:    

    Отпуск на Майорке через торрент
    Скачать бесплатно Отпуск на Майорке
    Отпуск на Майорке скачать торрент
    Отпуск на Майорке смотреть онлайн
    Cкачать фильм Отпуск на Майорке бесплатно
    Отпуск на Майорке скачать торрент в хорошем качестве
    Отпуск на Майорке смотреть онлайн бесплатно в хорошем качестве


    Вы не можете начинать темы
    Вы не можете отвечать на сообщения
    Вы не можете редактировать свои сообщения
    Вы не можете удалять свои сообщения
    Вы не можете голосовать в опросах
    Вы не можете прикреплять файлы к сообщениям
    Вы можете скачивать файлы