MEGA NEWS Получи личный уникальный адрес сайта и защити себя от блокировок. Внимание количество ограничено!!!

iTunes

1+1

iTunes

мы

iTunes

1

iTunes

Чернобыль

iTunes

Ральф против интернета

Лицензия

ПШазам

Лицензия

Игра престолов

Лицензия

30
pack

ВАЖНО

!!Акция!!

Alien_RageХит недели

RePack

Resident Evil 21

ИГРА 18+

pack

RePack

Metro:Exodus

!!Акция!!

Alien_Rage

RePack

fifa19

RePack

Assassins Creed: Odyssey

RePack

NEED FOR SPEED™ PAYBACK

3 сезон

9 сезон

Бесстыжие 9 сезон

Все сериалы

все сериалы на PB.wtf

RePack

FAR CRY 5
Ребята, катастрофически не хватает 1900р. для оплаты серверов за АВГУСТ (всвязи с блокировками трафик упал в 3 раза), 1-2р., выручайте.
  

Ходячие мертвецы / The Walking Dead / Сезон: 8 / Серии: 1-16 из 16 (Грег Никотеро, Эрнест Р. Дикерсон, Гай Ферленд) [2017, ужасы, драма, WEBRip] MVO [Jaskier] pb.wtf

Ходячие мертвецы через торрент pb.wtf

Размер: 9.41 GB | Добавлен: 1 год 6 мес. назад | Торрент скачан:11 раз
Скачать  

24-10-2017 18:33 Ходячие мертвецы Скачать торрент  

☠ Ходячие мертвецы / The Walking Dead ☠
Информация о фильме:

✦ Год выпуска: 2017
✦ Страна: США
✦ Жанр: ужасы, драма
✦ Продолжительность: ~ 00:45:00
✦ Перевод: Профессиональный (многоголосый) | Jaskier
✦ Субтитры: отсутствуют
✦ Присутствует аудио-реклама!

✦ Режиссер: Грег Никотеро, Эрнест Р. Дикерсон, Гай Ферленд

rating

В ролях:

Эндрю Линкольн, Стивен Ян, Чендлер Риггз, Норман Ридус, Мелисса Сюзанн МакБрайд, Лорен Кохэн, Данай Джекесай Гурира, Сонекуа Мартин-Грин, Эмили Кинни, Аланна Мастерсон

Описание:

После страшной болезни, превратившей жителей Земли в зомби, небольшая группа пока еще живых людей изо дня в день борется за выживание в новом, враждебном мире. Под предводительством бывшего полицейского Рика они ищут безопасное для жизни место, но зомби — это не самое страшное, что их ждет, основная опасность — это жестокое внутреннее соперничество среди выживших.

Информация о файле:

Качество: WEBRip
Формат: AVI
Видео кодек: XviD
Аудио кодек: MP3

Видео: ~ 1400 kbps, 720x400
Аудио#1 RU: MP3, 2 ch, 128 kbps
Аудио#2 EN: MP3, 2 ch, 128 kbps


скриншот   скриншот   скриншот  

Общее
Полное имя : D:\TWD. Season 8 (WEBRip l 400p l Jaskier)\The.Walking.Dead.S08E01.WEBRip.Rus.Eng.Jaskier.avi
Формат : AVI
Формат/Информация : Audio Video Interleave
Размер файла : 549 Мбайт
Продолжительность : 47 м. 14 с.
Общий поток : 1624 Кбит/сек
Программа кодирования : VirtualDubMod 1.5.10.3 | www.virtualdub-fr.org || (build 2550/release)
Библиотека кодирования : VirtualDubMod build 2550/release

Видео
Идентификатор : 0
Формат : MPEG-4 Visual
Профиль формата : Advanced Simple@L5
Параметр BVOP формата : 1
Параметр QPel формата : Нет
Параметр GMC формата : Без точки перехода
Параметр матрицы формата : Default (MPEG)
Идентификатор кодека : XVID
Идентификатор кодека/Подсказка : XviD
Продолжительность : 47 м. 14 с.
Битрейт : 1354 Кбит/сек
Ширина : 720 пикселей
Высота : 400 пикселей
Соотношение сторон : 16:9
Частота кадров : 23,976 (23976/1000) кадра/сек
Цветовое пространство : YUV
Субдискретизация насыщенности : 4:2:0
Битовая глубина : 8 бит
Тип развёртки : Прогрессивная
Метод сжатия : С потерями
Бит/(Пиксели*Кадры) : 0.196
Размер потока : 458 Мбайт (83%)
Библиотека кодирования : XviD 73

Аудио #1
Идентификатор : 1
Формат : MPEG Audio
Версия формата : Version 1
Профиль формата : Layer 3
Режим : Joint stereo
Расширение режима : MS Stereo
Идентификатор кодека : 55
Идентификатор кодека/Подсказка : MP3
Продолжительность : 47 м. 14 с.
Вид битрейта : Постоянный
Битрейт : 128 Кбит/сек
Каналы : 2 канала
Частота : 48,0 КГц
Метод сжатия : С потерями
Размер потока : 43,3 Мбайт (8%)
Выравнивание : Соединение по промежуткам
Продолжительность промежутка : 42 мс. (1,00 видеокадр)
Время предзагрузки промежутка : 504 мс.

Аудио #2
Идентификатор : 2
Формат : MPEG Audio
Версия формата : Version 1
Профиль формата : Layer 3
Режим : Joint stereo
Расширение режима : MS Stereo
Идентификатор кодека : 55
Идентификатор кодека/Подсказка : MP3
Продолжительность : 47 м. 14 с.
Вид битрейта : Постоянный
Битрейт : 128 Кбит/сек
Каналы : 2 канала
Частота : 48,0 КГц
Метод сжатия : С потерями
Размер потока : 43,3 Мбайт (8%)
Выравнивание : Соединение по промежуткам
Продолжительность промежутка : 42 мс. (1,00 видеокадр)
Время предзагрузки промежутка : 504 мс.

Когда раздача ведётся путём добавления новых серий, при каждом добавлении создётся новый торрент. Чтобы начать докачку новой серии, пользователям необходимо сделать следующее:
(1) остановить скачивание,
(2) удалить старый торрент у себя из клиента (старые серии удалять не надо),
(3) скачать новый торрент и запустить его у себя в клиенте вместо старого, при этом указать клиенту путь в старую папку, куда и должно происходить скачивание новых серий.
Ваш клиент при этом должен произвести хеширование (проверку) старой папки (если не производит сам - помогите ему сделать это), и будет докачивать только те серии, которых у вас ещё нет. Старые серии при этом не удаляются, а продолжают раздаваться!
Eсли вы уже удалили старые серии, то предотвратить повторную закачку старых серий можно, отжав галочку в соответсвующих местах при запуске нового торрента. По возможности, желательно не удалять старые серии как можно дольше, чтобы релизёр не столько продолжал раздавать старые серии, а смог сконцентрироваться на новых.
pb.wtf



Скачать Ходячие мертвецы через торрент http://s019.radikal.ru/i613/1710/22/b5c669fc1912.jpg Скачать фильм Ходячие мертвецы через торрент бесплантно в хорошем качестве Описание: После страшной болезни, превратившей жителей Земли в зомби, небольшая группа пока еще живых людей изо дня в день борется за ... 10 10 10
Торрент: Зарегистрирован [2018-04-17 09:49] · скачан: 11 раз
Статус: √ проверено
Размер: 9.41 GB
Как cкачать? Как скачать Ходячие мертвецы через торрент | qTorrent

% Раздел Тема Автор DL S | L
Ходячие мертвецы (The Walking Dead) [ 25.94 GB ] Ходячие мертвецы / The Walking Dead / Сезон: 8 / Серии: 1-16 из 16 [2017 WEB-DL 720p] MVO [FOX] bober100 Скачать
1 | 0
Ходячие мертвецы (The Walking Dead) [ 9.16 GB ] Ходячие мертвецы / The Walking Dead / Сезон: 8 / Серии: 1-16 из 16 [2017 WEBRip] MVO [Profix Media] bober100 Скачать
3 | 0
Ходячие мертвецы (The Walking Dead) [ 27.05 GB ] Ходячие мертвецы / The Walking Dead / Сезон: 8 / Серии: 1-16 из 16 [2017-2018 WEBRip 720p] [MVO] killermax2013 Скачать
1 | 0
Ходячие мертвецы (The Walking Dead) [ 8.87 GB ] Ходячие мертвецы / The Walking Dead / Сезон: 8 / Серии: 1-16 из 16 [2017 WEB-DLRip] MVO [LostFilm] bober100 Скачать
1 | 1
Ходячие мертвецы (The Walking Dead) [ 30.8 GB ] Ходячие мертвецы / The Walking Dead / Сезон: 8 / Серии: 1-16 из 16 [2017 WEB-DL 1080p] MVO [FOX] bober100 Скачать
4 | 0
Ходячие мертвецы (The Walking Dead) [ 22.68 GB ] Ходячие мертвецы / The Walking Dead / Сезон: 8 / Серии: 1-16 из 16 [2017 HDTVRip 720p] MVO [ColdFilm] bober100 Скачать
1 | 0
Ходячие мертвецы (The Walking Dead) [ 26.16 GB ] Ходячие мертвецы / The Walking Dead / Сезон: 8 / Серии: 1-16 из 16 [2017 WEB-DL 720p] MVO [NewStudio] bober100 Скачать
1 | 0


>> Регистрируемся здесь <<






Отзывы и комментарии о схеме читаем и пишем здесь: ---> Отзывы и комментарии о схеме

Новые благодарочки в телеграм довольных пользователей:
скриншот   скриншот   скриншот   скриншот   скриншот
    Дорогой пользователь! Огромная просьба, поблагодарите релизера, оцените раздачу и оставьте свои комментарий, если Вы скачали Ходячие мертвецы через торрент бесплатно! Внесите свою лепту в развитие PiratBit!
    Комментировать посты могут только пользователи прошедшие не сложную регистрацию
    Показать сообщения:    

    Ходячие мертвецы через торрент
    Скачать бесплатно Ходячие мертвецы
    Ходячие мертвецы скачать торрент
    Ходячие мертвецы смотреть онлайн
    Cкачать фильм Ходячие мертвецы бесплатно
    Ходячие мертвецы скачать торрент в хорошем качестве
    Ходячие мертвецы смотреть онлайн бесплатно в хорошем качестве


    Вы не можете начинать темы
    Вы не можете отвечать на сообщения
    Вы не можете редактировать свои сообщения
    Вы не можете удалять свои сообщения
    Вы не можете голосовать в опросах
    Вы не можете прикреплять файлы к сообщениям
    Вы можете скачивать файлы