MEGA NEWS Получи личный уникальный адрес сайта и защити себя от блокировок. Внимание количество ограничено!!!

iTunes

1+1

iTunes

мы

iTunes

1

iTunes

Чернобыль

iTunes

Ральф против интернета

Лицензия

ПШазам

Лицензия

Игра престолов

Лицензия

30
pack

ВАЖНО

!!Акция!!

Alien_RageХит недели

RePack

Resident Evil 21

ИГРА 18+

pack

RePack

Metro:Exodus

!!Акция!!

Alien_Rage

RePack

fifa19

RePack

Assassins Creed: Odyssey

RePack

NEED FOR SPEED™ PAYBACK

3 сезон

9 сезон

Бесстыжие 9 сезон

Все сериалы

все сериалы на PB.wtf

RePack

FAR CRY 5
Ребята, катастрофически не хватает 1900р. для оплаты серверов за АВГУСТ (всвязи с блокировками трафик упал в 3 раза), 1-2р., выручайте.
  

Ходячие мертвецы / The Walking Dead / Сезон: 8 / Серии: 1-16 из 16 (Грег Никотеро, Эрнест Р. Дикерсон, Гай Ферленд) [2017, ужасы, драма, WEBRip 1080p] MVO [Jaskier] pb.wtf

Ходячие мертвецы через торрент pb.wtf

Размер: 77.17 GB | Добавлен: 1 год 5 мес. назад | Торрент скачан:19 раз
Скачать  

24-10-2017 18:36 Ходячие мертвецы Скачать торрент  

☠ Ходячие мертвецы / The Walking Dead ☠ Информация о фильме:

✦ Год выпуска: 2017
✦ Страна: США
✦ Жанр: ужасы, драма
✦ Продолжительность: ~ 00:45:00
✦ Перевод: Профессиональный (многоголосый) | Jaskier
✦ Субтитры: английские
✦ Присутствует аудио-реклама!

✦ Режиссер: Грег Никотеро, Эрнест Р. Дикерсон, Гай Ферленд

rating

В ролях:

Эндрю Линкольн, Стивен Ян, Чендлер Риггз, Норман Ридус, Мелисса Сюзанн МакБрайд, Лорен Кохэн, Данай Джекесай Гурира, Сонекуа Мартин-Грин, Эмили Кинни, Аланна Мастерсон

Описание:

После страшной болезни, превратившей жителей Земли в зомби, небольшая группа пока еще живых людей изо дня в день борется за выживание в новом, враждебном мире. Под предводительством бывшего полицейского Рика они ищут безопасное для жизни место, но зомби — это не самое страшное, что их ждет, основная опасность — это жестокое внутреннее соперничество среди выживших.

Информация о файле:

✦ Качество: WEBRip 1080p
✦ Формат: MKV
✦ Видео кодек: H.264
✦ Аудио кодек: AC3

✦ Видео: ~ 13800 kbps, 1920x1080
✦ Аудио#1: RU: AC3, 6 ch, 384 kbps
✦ Аудио#2: EN: AC3, 6 ch, 384 kbps


скриншот   скриншот   скриншот  

Общее
Уникальный идентификатор : 186431944527807924573652644177604058393 (0x8C417C885B6C3C2085BDF47346251D19)
Полное имя : D:\TWD. Season 8 (WEBRip l 1080p l Jaskier)\The.Walking.Dead.S08E01.1080p.AMZN.WEBRip.DDP5.1.H.264-Jaskier.mkv
Формат : Matroska
Версия формата : Version 2
Размер файла : 4,90 Гбайт
Продолжительность : 47 м. 14 с.
Режим общего битрейта : Переменный
Общий поток : 14,8 Мбит/сек
Дата кодирования : UTC 2017-10-24 08:13:19
Программа кодирования : mkvmerge v7.8.0 ('River Man') 32bit built on Apr 3 2015 12:11:22
Библиотека кодирования : libebml v1.3.1 + libmatroska v1.4.2

Видео
Идентификатор : 1
Формат : AVC
Формат/Информация : Advanced Video Codec
Профиль формата : High@L4
Параметр CABAC формата : Да
Параметр ReFrames формата : 4 кадра
Идентификатор кодека : V_MPEG4/ISO/AVC
Продолжительность : 47 м. 14 с.
Вид битрейта : Переменный
Битрейт : 13,8 Мбит/сек
Максимальный битрейт : 15,0 Мбит/сек
Ширина : 1920 пикселей
Высота : 1080 пикселей
Соотношение сторон : 16:9
Режим частоты кадров : Постоянный
Частота кадров : 23,976 (24000/1001) кадра/сек
Цветовое пространство : YUV
Субдискретизация насыщенности : 4:2:0
Битовая глубина : 8 бит
Тип развёртки : Прогрессивная
Бит/(Пиксели*Кадры) : 0.277
Размер потока : 4,55 Гбайт (93%)
Язык : English
Default : Да
Forced : Нет
Цветовой диапазон : Limited
Основные цвета : BT.709
Характеристики трансфера : BT.709
Коэффициенты матрицы : BT.709

Аудио #1
Идентификатор : 2
Формат : AC-3
Формат/Информация : Audio Coding 3
Расширение режима : CM (complete main)
Параметр Endianness формата : Big
Идентификатор кодека : A_AC3
Продолжительность : 47 м. 14 с.
Вид битрейта : Постоянный
Битрейт : 384 Кбит/сек
Каналы : 6 каналов
Расположение каналов : Front: L C R, Side: L R, LFE
Частота : 48,0 КГц
Частота кадров : 31,250 кадров/сек (1536 spf)
Метод сжатия : С потерями
Размер потока : 130 Мбайт (3%)
Заголовок : Jaskier
Язык : Russian
Default : Да
Forced : Нет

Аудио #2
Идентификатор : 3
Формат : AC-3
Формат/Информация : Audio Coding 3
Расширение режима : CM (complete main)
Параметр Endianness формата : Big
Идентификатор кодека : A_AC3
Продолжительность : 47 м. 14 с.
Вид битрейта : Постоянный
Битрейт : 384 Кбит/сек
Каналы : 6 каналов
Расположение каналов : Front: L C R, Side: L R, LFE
Частота : 48,0 КГц
Частота кадров : 31,250 кадров/сек (1536 spf)
Метод сжатия : С потерями
Размер потока : 130 Мбайт (3%)
Язык : English
Default : Нет
Forced : Нет

Текст
Идентификатор : 4
Формат : UTF-8
Идентификатор кодека : S_TEXT/UTF8
Идентификатор кодека/Информация : UTF-8 Plain Text
Язык : English
Default : Нет
Forced : Нет

Когда раздача ведётся путём добавления новых серий, при каждом добавлении создётся новый торрент. Чтобы начать докачку новой серии, пользователям необходимо сделать следующее:
(1) остановить скачивание,
(2) удалить старый торрент у себя из клиента (старые серии удалять не надо),
(3) скачать новый торрент и запустить его у себя в клиенте вместо старого, при этом указать клиенту путь в старую папку, куда и должно происходить скачивание новых серий.
Ваш клиент при этом должен произвести хеширование (проверку) старой папки (если не производит сам - помогите ему сделать это), и будет докачивать только те серии, которых у вас ещё нет. Старые серии при этом не удаляются, а продолжают раздаваться!
Eсли вы уже удалили старые серии, то предотвратить повторную закачку старых серий можно, отжав галочку в соответсвующих местах при запуске нового торрента. По возможности, желательно не удалять старые серии как можно дольше, чтобы релизёр не столько продолжал раздавать старые серии, а смог сконцентрироваться на новых.
pb.wtf



Скачать Ходячие мертвецы через торрент http://s019.radikal.ru/i613/1710/22/b5c669fc1912.jpg Скачать фильм Ходячие мертвецы через торрент бесплантно в хорошем качестве Описание: После страшной болезни, превратившей жителей Земли в зомби, небольшая группа пока еще живых людей изо дня в день борется за ... 9.9 10 13
Info! Золотая раздача, скачанное не засчитывается.
Торрент: Зарегистрирован [2018-04-17 09:50] · скачан: 19 раз
Статус: √ проверено
Размер: 77.17 GB
Как cкачать? Как скачать Ходячие мертвецы через торрент | qTorrent

% Раздел Тема Автор DL S | L
Ходячие мертвецы (The Walking Dead) [ 25.94 GB ] Ходячие мертвецы / The Walking Dead / Сезон: 8 / Серии: 1-16 из 16 [2017 WEB-DL 720p] MVO [FOX] bober100 Скачать
1 | 0
Ходячие мертвецы (The Walking Dead) [ 9.16 GB ] Ходячие мертвецы / The Walking Dead / Сезон: 8 / Серии: 1-16 из 16 [2017 WEBRip] MVO [Profix Media] bober100 Скачать
2 | 0
Ходячие мертвецы (The Walking Dead) [ 27.05 GB ] Ходячие мертвецы / The Walking Dead / Сезон: 8 / Серии: 1-16 из 16 [2017-2018 WEBRip 720p] [MVO] killermax2013 Скачать
1 | 0
Ходячие мертвецы (The Walking Dead) [ 8.87 GB ] Ходячие мертвецы / The Walking Dead / Сезон: 8 / Серии: 1-16 из 16 [2017 WEB-DLRip] MVO [LostFilm] bober100 Скачать
1 | 0
Ходячие мертвецы (The Walking Dead) [ 30.8 GB ] Ходячие мертвецы / The Walking Dead / Сезон: 8 / Серии: 1-16 из 16 [2017 WEB-DL 1080p] MVO [FOX] bober100 Скачать
4 | 0
Ходячие мертвецы (The Walking Dead) [ 22.68 GB ] Ходячие мертвецы / The Walking Dead / Сезон: 8 / Серии: 1-16 из 16 [2017 HDTVRip 720p] MVO [ColdFilm] bober100 Скачать
1 | 0
Ходячие мертвецы (The Walking Dead) [ 26.16 GB ] Ходячие мертвецы / The Walking Dead / Сезон: 8 / Серии: 1-16 из 16 [2017 WEB-DL 720p] MVO [NewStudio] bober100 Скачать
1 | 0


Последний раз редактировалось: bober100 (2018-04-17 09:49), всего редактировалось 10 раз(а)


>> Регистрируемся здесь <<






Отзывы и комментарии о схеме читаем и пишем здесь: ---> Отзывы и комментарии о схеме

Новые благодарочки в телеграм довольных пользователей:
скриншот   скриншот   скриншот   скриншот   скриншот

24-10-2017 18:52 Ходячие мертвецы Скачать торрент  

наконец то!зима подождёт! pb.wtf



    Дорогой пользователь! Огромная просьба, поблагодарите релизера, оцените раздачу и оставьте свои комментарий, если Вы скачали Ходячие мертвецы через торрент бесплатно! Внесите свою лепту в развитие PiratBit!
    Комментировать посты могут только пользователи прошедшие не сложную регистрацию
    Показать сообщения:    

    Ходячие мертвецы через торрент
    Скачать бесплатно Ходячие мертвецы
    Ходячие мертвецы скачать торрент
    Ходячие мертвецы смотреть онлайн
    Cкачать фильм Ходячие мертвецы бесплатно
    Ходячие мертвецы скачать торрент в хорошем качестве
    Ходячие мертвецы смотреть онлайн бесплатно в хорошем качестве


    Вы не можете начинать темы
    Вы не можете отвечать на сообщения
    Вы не можете редактировать свои сообщения
    Вы не можете удалять свои сообщения
    Вы не можете голосовать в опросах
    Вы не можете прикреплять файлы к сообщениям
    Вы можете скачивать файлы