Ссылка на приватное зеркало нашего сайта всего за 1$. Внимание количество ограничено!!!

2 сезон

iTunes

1 сезон

1

iTunes

iTunes

iTunes

1 сезон

RePack

30

ИГРА 18+

pack

ВАЖНО

!!Акция!!

Alien_RageХит недели

RePack

MK11
pack

Забери бонус

RePack

jed

!!Акция!!

Alien_Rage

RePack

fifa19

RePack

Assassins Creed: Odyssey

RePack

NEED FOR SPEED™ PAYBACK

4 сезон

9 сезон

Бесстыжие 9 сезон

Все сериалы

все сериалы на PB.wtf

RePack

FAR CRY 5
  

Гостиница «Россия» / Сезон 1 / Серии 1-12 из 12 (Сергей Сенцов) [2016, драма, детектив, мелодрама, HDTVRip] pb.wtf

Гостиница «Россия» через торрент pb.wtf

Размер: 8.03 GB | Добавлен: 3 года назад | Торрент скачан:61 раз
Скачать  

25-10-2017 05:49 Гостиница «Россия» Скачать торрент  

Гостиница «Россия» Год выпуска: 2016
Страна: Россия
Жанр: драма, детектив, мелодрама
Всего серий: 12
Продолжительность: 12 х ~ 00:50:00
Субтитры: отсутствуют



Режиссер: Сергей Сенцов

В ролях:

Екатерина Вилкова, Павел Трубинер, Евгений Пронин, Милан Босильчич, Людмила Дребнёва, Анатолий Горячев, Владимир Кошевой, Данила Дунаев, Софья Синицына, Иван Дубровский, Анатолий Гущин, Никита Тарасов, Сабина Ахмедова, Константин Мурзенко, Владимир Матвеев, Татьяна Рассказова, Сергей Барковский, Зарина Мухитдинова, Сахат Дурсунов, Мириам Сехон, Сейдулла Молдаханов, Марко Динелли, Алексей Овсянников

Описание:

Москва, 1976 год. Ксения – сотрудница орготдела гостиницы «Россия». Она отвечает за прием и комфортное пребывание гостей, среди которых, в основном советская знать и высокопоставленные иностранцы. Гостиница – целый мир, не похожий на обыденную советскую реальность. Здесь ощущается дыхание другой жизни, роскошной, неизвестной, притягательной. Это место, где сходятся интересы разных отделов КГБ и милиции, криминала и мира искусства, интересы разных политических и международных групп. Этот мир живет по своим законам, в него невозможно попасть просто с улицы. Получить работу в гостинице и удержаться на ней – большая удача и тяжелый труд. Ксения работает в атмосфере подозрительности, интриг. В «России» идет скрытая борьба за Влacть, и соблюсти нейтралитет не получается. Положение Ксении осложняется беременностью от Мануэля – никарагуанца, закупающего в СССР оружие для переворота в своей стране. Героине предстоит сделать не один сложный выбор, а также пережить страшный пожар в гостинице, который поставит точку в этой истории.

Качество: HDTVRip
Формат: AVI
Видео кодек: XviD
Аудио кодек: AC3

Видео: 720x400 (1.80:1), 25 fps, XviD build 73 ~1800 kbps avg, 0.256 bit/pixel
Аудио: 48 kHz, AC3 Dolby Digital, 2/0 (L,R) ch, ~192 kbps
скриншот   скриншот   скриншот   скриншот  

Общее
Полное имя : D:\Gostinica Rossija.HDTVRip.GeneralFilm\01.Gostinica Rossija.HDTVRip.GeneralFilm.avi
Формат : AVI
Формат/Информация : Audio Video Interleave
Размер файла : 673 Мбайт
Продолжительность : 47 м. 2 с.
Общий поток : 2001 Кбит/сек
Программа кодирования : VirtualDubMod 1.5.10.3 (build 2550/release)
Библиотека кодирования : VirtualDubMod build 2550/release

Видео
Идентификатор : 0
Формат : MPEG-4 Visual
Профиль формата : Advanced Simple@L5
Параметр BVOP формата : 1
Параметр QPel формата : Нет
Параметр GMC формата : Без точки перехода
Параметр матрицы формата : Выборочная
Идентификатор кодека : XVID
Идентификатор кодека/Подсказка : XviD
Продолжительность : 47 м. 2 с.
Битрейт : 1800 Кбит/сек
Ширина : 720 пикселей
Высота : 400 пикселей
Соотношение сторон : 16:9
Частота кадров : 25,000 кадров/сек
Цветовое пространство : YUV
Субдискретизация насыщенности : 4:2:0
Битовая глубина : 8 бит
Тип развёртки : Прогрессивная
Метод сжатия : С потерями
Бит/(Пиксели*Кадры) : 0.250
Размер потока : 606 Мбайт (90%)
Библиотека кодирования : XviD 73

Аудио
Идентификатор : 1
Формат : AC-3
Формат/Информация : Audio Coding 3
Расширение режима : CM (complete main)
Параметр Endianness формата : Big
Идентификатор кодека : 2000
Продолжительность : 47 м. 2 с.
Вид битрейта : Постоянный
Битрейт : 192 Кбит/сек
Каналы : 2 канала
Расположение каналов : Front: L R
Частота : 48,0 КГц
Частота кадров : 31,250 кадров/сек (1536 spf)
Метод сжатия : С потерями
Размер потока : 64,6 Мбайт (10%)
Выравнивание : Разделение по промежуткам
Продолжительность промежутка : 40 мс. (1,00 видеокадр)
Время предзагрузки промежутка : 500 мс.

pb.wtf



Скачать Гостиница «Россия» через торрент http://rudb.org/img/2017_10/i59e4da9e327e7.jpg Скачать фильм Гостиница «Россия» через торрент бесплантно в хорошем качестве Описание: Москва, 1976 год. Ксения – сотрудница орготдела гостиницы «Россия». Она отвечает за прием и комфортное пребывание гостей, среди ... 10 10 4
Торрент: Зарегистрирован [2017-10-25 05:49] · скачан: 61 раз
Статус: √ проверено
Размер: 8.03 GB
Как cкачать? Как скачать Гостиница «Россия» через торрент | qTorrent

% Раздел Тема Автор DL S | L
Наши сериалы [ 31.06 GB ] Гостиница «Россия» / Сезон: 1 / Серии: 1-12 из 12 [2016 HDTV 1080i] bober100 Скачать
1 | 0
Наши сериалы [ 14.81 GB ] Гостиница «Россия» / Сезон 1 / 1-12 серии из 12 [2016 HDTVRip 720p] bober100 Скачать
1 | 0
Наши сериалы [ 8.8 GB ] Гостиница «Россия» / Сезон 1 / Серии 1-12 из 12 [2016 HDTVRip-AVC] bober100 Скачать
1 | 0

28-11-2019 20:33  

Отключить всю рекламу на сайте

    Дорогой пользователь! Огромная просьба, поблагодарите релизера, оцените раздачу и оставьте свои комментарий, если Вы скачали Гостиница «Россия» через торрент бесплатно! Внесите свою лепту в развитие PiratBit!
    Комментировать посты могут только пользователи прошедшие не сложную регистрацию
    Показать сообщения:    

    Гостиница «Россия» через торрент
    Скачать бесплатно Гостиница «Россия»
    Гостиница «Россия» скачать торрент
    Гостиница «Россия» смотреть онлайн
    Cкачать фильм Гостиница «Россия» бесплатно
    Гостиница «Россия» скачать торрент в хорошем качестве
    Гостиница «Россия» смотреть онлайн бесплатно в хорошем качестве


    Вы не можете начинать темы
    Вы не можете отвечать на сообщения
    Вы не можете редактировать свои сообщения
    Вы не можете удалять свои сообщения
    Вы не можете голосовать в опросах
    Вы не можете прикреплять файлы к сообщениям
    Вы можете скачивать файлы