Ссылка на приватное зеркало нашего сайта всего за 1$. Внимание количество ограничено!!!

2 сезон

iTunes

1 сезон

1

iTunes

iTunes

iTunes

1 сезон

RePack

30

ИГРА 18+

pack

ВАЖНО

!!Акция!!

Alien_RageХит недели

RePack

MK11
pack

Забери бонус

RePack

jed

!!Акция!!

Alien_Rage

RePack

fifa19

RePack

Assassins Creed: Odyssey

RePack

NEED FOR SPEED™ PAYBACK

4 сезон

9 сезон

Бесстыжие 9 сезон

Все сериалы

все сериалы на PB.wtf

RePack

FAR CRY 5
  

Гостиница «Россия» / Сезон 1 / Серии 1-12 из 12 (Сергей Сенцов) [2016, драма, детектив, мелодрама, HDTVRip-AVC] pb.wtf

Гостиница «Россия» через торрент pb.wtf

Размер: 8.8 GB | Добавлен: 3 года назад | Торрент скачан:181 раз
Скачать  

25-10-2017 06:30 Гостиница «Россия» Скачать торрент  

Гостиница «Россия»Год выпуска: 2016
Страна: Россия
Жанр: драма, детектив, мелодрама
Всего серий: 12
Продолжительность: 12 х ~ 00:50:00
Субтитры: отсутствуют

Режиссер: Сергей Сенцов



В ролях:

Екатерина Вилкова, Павел Трубинер, Евгений Пронин, Милан Босильчич, Людмила Дребнёва, Анатолий Горячев, Владимир Кошевой, Данила Дунаев, Софья Синицына, Иван Дубровский, Анатолий Гущин, Никита Тарасов, Сабина Ахмедова, Константин Мурзенко, Владимир Матвеев, Татьяна Рассказова, Сергей Барковский, Зарина Мухитдинова, Сахат Дурсунов, Мириам Сехон, Сейдулла Молдаханов, Марко Динелли, Алексей Овсянников

Описание:

Москва, 1976 год. Ксения – сотрудница орготдела гостиницы «Россия». Она отвечает за прием и комфортное пребывание гостей, среди которых, в основном советская знать и высокопоставленные иностранцы. Гостиница – целый мир, не похожий на обыденную советскую реальность. Здесь ощущается дыхание другой жизни, роскошной, неизвестной, притягательной. Это место, где сходятся интересы разных отделов КГБ и милиции, криминала и мира искусства, интересы разных политических и международных групп. Этот мир живет по своим законам, в него невозможно попасть просто с улицы. Получить работу в гостинице и удержаться на ней – большая удача и тяжелый труд. Ксения работает в атмосфере подозрительности, интриг. В «России» идет скрытая борьба за Влacть, и соблюсти нейтралитет не получается. Положение Ксении осложняется беременностью от Мануэля – никарагуанца, закупающего в СССР оружие для переворота в своей стране. Героине предстоит сделать не один сложный выбор, а также пережить страшный пожар в гостинице, который поставит точку в этой истории.

Качество: HDTVRip-AVC
Формат: MKV
Видео кодек: H.264
Аудио кодек: AC3

Видео: 1024x576 (16:9), 25 fps, AVC MPEG-4 (x264), High@L4.1 ~ 2000 kbps , 0.136 bit/pixel
Аудио: 48 kHz, AC3, 2/0 (L,R) ch, ~192 kbps
скриншот   скриншот   скриншот   скриншот  

Общее
Уникальный идентификатор : 175539573812700578433404487261918574035 (0x840FB13199971487A6606FE7AC37B5D3)
Полное имя : C:\Gostinica Rossija.(2017).HDTVRip.(AVC).\01.Gostinica Rossija.(2017).HDTVRip.AVC.mkv
Формат : Matroska
Версия формата : Version 2
Размер файла : 738 Мбайт
Продолжительность : 47 м. 2 с.
Общий поток : 2194 Кбит/сек
Дата кодирования : UTC 2017-10-16 17:16:11
Программа кодирования : mkvmerge v7.8.0 ('River Man') 32bit built on Apr 3 2015 12:11:22
Библиотека кодирования : libebml v1.3.1 + libmatroska v1.4.2

Видео
Идентификатор : 1
Формат : AVC
Формат/Информация : Advanced Video Codec
Профиль формата : High@L4.1
Настройки формата : CABAC / 9 Ref Frames
Параметр CABAC формата : Да
Параметр RefFrames формата : 9 кадров
Идентификатор кодека : V_MPEG4/ISO/AVC
Продолжительность : 47 м. 2 с.
Битрейт : 2000 Кбит/сек
Ширина : 1024 пикселя
Высота : 576 пикселей
Соотношение сторон : 16:9
Режим частоты кадров : Постоянный
Частота кадров : 25,000 кадров/сек
Цветовое пространство : YUV
Субдискретизация насыщенности : 4:2:0
Битовая глубина : 8 бит
Тип развёртки : Прогрессивная
Бит/(Пиксели*Кадры) : 0.136
Размер потока : 659 Мбайт (89%)
Библиотека кодирования : x264 core 146 r2538 121396c
Настройки программы : cabac=1 / ref=9 / deblock=1:-2:-1 / analyse=0x3:0x113 / me=umh / subme=9 / psy=1 / psy_rd=1.00:0.15 / mixed_ref=1 / me_range=32 / chroma_me=1 / trellis=2 / 8x8dct=1 / cqm=0 / deadzone=21,11 / fast_pskip=0 / chroma_qp_offset=-3 / threads=18 / lookahead_threads=3 / sliced_threads=0 / nr=0 / decimate=1 / interlaced=0 / bluray_compat=0 / constrained_intra=0 / bframes=9 / b_pyramid=2 / b_adapt=2 / b_bias=0 / direct=1 / weightb=1 / open_gop=0 / weightp=2 / keyint=250 / keyint_min=25 / scenecut=40 / intra_refresh=0 / rc_lookahead=40 / rc=2pass / mbtree=0 / bitrate=2000 / ratetol=1.0 / qcomp=0.60 / qpmin=0 / qpmax=69 / qpstep=4 / cplxblur=20.0 / qblur=0.5 / vbv_maxrate=14000 / vbv_bufsize=14000 / nal_hrd=none / filler=0 / ip_ratio=1.40 / pb_ratio=1.30 / aq=2:1.00
Default : Да
Forced : Нет
Цветовой диапазон : Limited
Основные цвета : BT.709
Характеристики трансфера : BT.709
Коэффициенты матрицы : BT.709

Аудио
Идентификатор : 2
Формат : AC-3
Формат/Информация : Audio Coding 3
Параметр Endianness формата : Big
Идентификатор кодека : A_AC3
Продолжительность : 47 м. 2 с.
Вид битрейта : Постоянный
Битрейт : 192 Кбит/сек
Каналы : 2 канала
Расположение каналов : Front: L R
Частота : 48,0 КГц
Частота кадров : 31,250 кадров/сек (1536 SPF)
Битовая глубина : 16 бит
Метод сжатия : С потерями
Размер потока : 64,6 Мбайт (9%)
ServiceKind/String : Complete Main
Default : Да
Forced : Нет

pb.wtf



Скачать Гостиница «Россия» через торрент http://rudb.org/img/2017_10/i59e5902c73a7b.jpg Скачать фильм Гостиница «Россия» через торрент бесплантно в хорошем качестве Описание: Москва, 1976 год. Ксения – сотрудница орготдела гостиницы «Россия». Она отвечает за прием и комфортное пребывание гостей, среди ... 10 10 4
Торрент: Зарегистрирован [2017-10-25 06:30] · скачан: 181 раз
Статус: √ проверено
Размер: 8.8 GB
Как cкачать? Как скачать Гостиница «Россия» через торрент | qTorrent

% Раздел Тема Автор DL S | L
Наши сериалы [ 31.06 GB ] Гостиница «Россия» / Сезон: 1 / Серии: 1-12 из 12 [2016 HDTV 1080i] bober100 Скачать
1 | 0
Наши сериалы [ 14.81 GB ] Гостиница «Россия» / Сезон 1 / 1-12 серии из 12 [2016 HDTVRip 720p] bober100 Скачать
1 | 0
Наши сериалы [ 8.03 GB ] Гостиница «Россия» / Сезон 1 / Серии 1-12 из 12 [2016 HDTVRip] bober100 Скачать
1 | 0

28-11-2019 20:33  

Отключить всю рекламу на сайте

    Дорогой пользователь! Огромная просьба, поблагодарите релизера, оцените раздачу и оставьте свои комментарий, если Вы скачали Гостиница «Россия» через торрент бесплатно! Внесите свою лепту в развитие PiratBit!
    Комментировать посты могут только пользователи прошедшие не сложную регистрацию
    Показать сообщения:    

    Гостиница «Россия» через торрент
    Скачать бесплатно Гостиница «Россия»
    Гостиница «Россия» скачать торрент
    Гостиница «Россия» смотреть онлайн
    Cкачать фильм Гостиница «Россия» бесплатно
    Гостиница «Россия» скачать торрент в хорошем качестве
    Гостиница «Россия» смотреть онлайн бесплатно в хорошем качестве


    Вы не можете начинать темы
    Вы не можете отвечать на сообщения
    Вы не можете редактировать свои сообщения
    Вы не можете удалять свои сообщения
    Вы не можете голосовать в опросах
    Вы не можете прикреплять файлы к сообщениям
    Вы можете скачивать файлы