Ссылка на приватное зеркало нашего сайта всего за 1$. Внимание количество ограничено!!!

2 сезон

iTunes

1 сезон

1

2 сезон

2 сезон

iTunes

1 сезон

RePack

30

Ultimate

ВАЖНО

ИГРА 18+

pack

RePack

MK11
pack

Забери бонус

RePack

jed

!!Акция!!

Alien_Rage

RePack

fifa19

RePack

Assassins Creed: Odyssey

RePack

NEED FOR SPEED™ PAYBACK

4 сезон

9 сезон

Бесстыжие 9 сезон

Все сериалы

все сериалы на PB.wtf

RePack

FAR CRY 5
  

Она же Грэйс / Alias Grace / Сезон 1 / Серии 1-6 из 6 (Мэри Хэррон) [2017, триллер, драма, криминал, биография, WEB-DL 1080p] MVO [Jaskier] pb.wtf

Она же Грэйс через торрент pb.wtf

Размер: 11.43 GB | Добавлен: 2 года 11 мес. назад | Торрент скачан:19 раз
Скачать  

25-10-2017 11:35 Она же Грэйс Скачать торрент  

◈ Она же Грэйс / Alias Grace ◈Информация о фильме:

✦ Год выпуска: 2017
✦ Страна: Великобритания
✦ Жанр: триллер, драма, криминал, биография
✦ Продолжительность: ~ 00:43:00
✦ Перевод: Профессиональный (многоголосый) - Jaskier
✦ Субтитры: отсутствуют
✦ Присутствует аудио-реклама.

Режиссер: Мэри Хэррон

rating

✦ В ролях:

Сара Гадон, Эдвард Холкрофт, Закари Левай, Керр Логан, Пол Гросс, Стефен Джофф, Ребекка Лиддьярд, Уилл Боус, Кейт Росс и др.

Описание:

История Грейс Маркс - горничной-иммигрантки из Ирландии, осуждённой за убийство своего работодателя Томаса Киннера в 1843 году. Грейс утверждает, что ничего не помнит о совершённом преступлении, однако факты неопровержимы. Десять лет спустя доктор Саймон Джордон пытается помочь женщине восстановить события прошлого.

Информация о файле:

✦ Качество: WEB-DL 1080p
✦ Формат: MKV
✦ Видео кодек: H.264
✦ Аудио кодек: AC3

✦ Видео: ~ 5200 kbps, 1920x1080, 23.976 fps
✦ Аудио#1: Rus: AC3, 6 ch, 384 kbps
✦ Аудио#2: Eng: AC3, 6 ch, 384 kbps


скриншот   скриншот   скриншот  

Общее
Уникальный идентификатор : 237871955473508824814442499569386104429 (0xB2F478E1F1C38DCFAB7E78ED457DA66D)
Полное имя : D:\Alias Grace. Season 1 (WEB-DL l 1080p l Jaskier)\Alias.Grace.S01E01.1080p.WEB-DL.DD5.1.H264-Jaskier.mkv
Формат : Matroska
Версия формата : Version 2
Размер файла : 1,91 Гбайт
Продолжительность : 45 м. 20 с.
Общий поток : 6036 Кбит/сек
Дата кодирования : UTC 2017-10-25 08:25:10
Программа кодирования : mkvmerge v7.8.0 ('River Man') 32bit built on Apr 3 2015 12:11:22
Библиотека кодирования : libebml v1.3.1 + libmatroska v1.4.2

Видео
Идентификатор : 1
Формат : AVC
Формат/Информация : Advanced Video Codec
Профиль формата : High@L4
Параметр CABAC формата : Да
Параметр ReFrames формата : 4 кадра
Идентификатор кодека : V_MPEG4/ISO/AVC
Продолжительность : 45 м. 20 с.
Битрейт : 5148 Кбит/сек
Ширина : 1920 пикселей
Высота : 1080 пикселей
Соотношение сторон : 16:9
Режим частоты кадров : Постоянный
Частота кадров : 23,976 (24000/1001) кадра/сек
Цветовое пространство : YUV
Субдискретизация насыщенности : 4:2:0
Битовая глубина : 8 бит
Тип развёртки : Прогрессивная
Бит/(Пиксели*Кадры) : 0.104
Размер потока : 1,63 Гбайт (85%)
Язык : English
Default : Да
Forced : Нет
Цветовой диапазон : Limited
Основные цвета : BT.709
Характеристики трансфера : BT.709
Коэффициенты матрицы : BT.709

Аудио #1
Идентификатор : 2
Формат : AC-3
Формат/Информация : Audio Coding 3
Расширение режима : CM (complete main)
Параметр Endianness формата : Big
Идентификатор кодека : A_AC3
Продолжительность : 45 м. 20 с.
Вид битрейта : Постоянный
Битрейт : 384 Кбит/сек
Каналы : 6 каналов
Расположение каналов : Front: L C R, Side: L R, LFE
Частота : 48,0 КГц
Частота кадров : 31,250 кадров/сек (1536 spf)
Метод сжатия : С потерями
Задержка видео : -42 мс.
Размер потока : 125 Мбайт (6%)
Заголовок : Jaskier
Язык : Russian
Default : Да
Forced : Нет

Аудио #2
Идентификатор : 3
Формат : AC-3
Формат/Информация : Audio Coding 3
Расширение режима : CM (complete main)
Параметр Endianness формата : Big
Идентификатор кодека : A_AC3
Продолжительность : 45 м. 20 с.
Вид битрейта : Постоянный
Битрейт : 384 Кбит/сек
Каналы : 6 каналов
Расположение каналов : Front: L C R, Side: L R, LFE
Частота : 48,0 КГц
Частота кадров : 31,250 кадров/сек (1536 spf)
Метод сжатия : С потерями
Задержка видео : -42 мс.
Размер потока : 125 Мбайт (6%)
Язык : English
Default : Нет
Forced : Нет

Когда раздача ведётся путём добавления новых серий, при каждом добавлении создётся новый торрент. Чтобы начать докачку новой серии, пользователям необходимо сделать следующее:
(1) остановить скачивание,
(2) удалить старый торрент у себя из клиента (старые серии удалять не надо),
(3) скачать новый торрент и запустить его у себя в клиенте вместо старого, при этом указать клиенту путь в старую папку, куда и должно происходить скачивание новых серий.
Ваш клиент при этом должен произвести хеширование (проверку) старой папки (если не производит сам - помогите ему сделать это), и будет докачивать только те серии, которых у вас ещё нет. Старые серии при этом не удаляются, а продолжают раздаваться!
Eсли вы уже удалили старые серии, то предотвратить повторную закачку старых серий можно, отжав галочку в соответсвующих местах при запуске нового торрента. По возможности, желательно не удалять старые серии как можно дольше, чтобы релизёр не столько продолжал раздавать старые серии, а смог сконцентрироваться на новых
pb.wtf



Скачать Она же Грэйс через торрент http://s46.radikal.ru/i111/1710/87/9714511c1911.png Скачать фильм Она же Грэйс через торрент бесплантно в хорошем качестве Описание: История Грейс Маркс - горничной-иммигрантки из Ирландии, осуждённой за убийство своего работодателя Томаса Киннера в 1843 году. ... 6.4 10 5
Торрент: Зарегистрирован [2017-12-15 04:22] · скачан: 19 раз
Статус: √ проверено
Размер: 11.43 GB
Как cкачать? Как скачать Она же Грэйс через торрент | qTorrent

% Раздел Тема Автор DL S | L
Зарубежные сериалы [ 9.26 GB ] Она же Грэйс / Alias Grace / Сезон 1 / Серии 1-6 из 6 [2017 биография WEB-DL 720p] MVO [Jaskier] bober100 Скачать
1 | 0
Зарубежные сериалы [ 3.4 GB ] Она же Грэйс / Alias Grace / Сезон 1 / Серии 1-6 из 6 [2017 биография WEB-DLRip] MVO [Jaskier] bober100 Скачать
1 | 0


Последний раз редактировалось: bober100 (2017-12-15 04:22), всего редактировалось 1 раз

28-11-2019 20:33  

Отключить всю рекламу на сайте

18-11-2017 18:40 Она же Грэйс Скачать торрент  

Нет информации на счет перевода 5 и 6 серии?pb.wtf



    Дорогой пользователь! Огромная просьба, поблагодарите релизера, оцените раздачу и оставьте свои комментарий, если Вы скачали Она же Грэйс через торрент бесплатно! Внесите свою лепту в развитие PiratBit!
    Комментировать посты могут только пользователи прошедшие не сложную регистрацию
    Показать сообщения:    

    Она же Грэйс через торрент
    Скачать бесплатно Она же Грэйс
    Она же Грэйс скачать торрент
    Она же Грэйс смотреть онлайн
    Cкачать фильм Она же Грэйс бесплатно
    Она же Грэйс скачать торрент в хорошем качестве
    Она же Грэйс смотреть онлайн бесплатно в хорошем качестве


    Вы не можете начинать темы
    Вы не можете отвечать на сообщения
    Вы не можете редактировать свои сообщения
    Вы не можете удалять свои сообщения
    Вы не можете голосовать в опросах
    Вы не можете прикреплять файлы к сообщениям
    Вы можете скачивать файлы