новый адрес пиратбит piratbit
Мега распродажа FORZA HORIZON 4 ULTIMATE+ВСЕ DLC+ОНЛАЙН всего за 499р. 349 руб. (супер цена). Внимание количество ограничено!!!

iTunes

1+1

iTunes

мы

iTunes

1

iTunes

Чернобыль

iTunes

Ральф против интернета

Лицензия

ПШазам

Лицензия

Игра престолов

Лицензия

30
pack

ВАЖНО

!!Акция!!

Alien_RageХит недели

RePack

Resident Evil 21

ИГРА 18+

pack

RePack

Metro:Exodus

!!Акция!!

Alien_Rage

RePack

fifa19

RePack

Assassins Creed: Odyssey

RePack

NEED FOR SPEED™ PAYBACK

3 сезон

9 сезон

Бесстыжие 9 сезон

Все сериалы

все сериалы на PB.wtf

RePack

FAR CRY 5
Ребята, катастрофически не хватает 1900р. для оплаты серверов за Октябрь (всвязи с блокировками трафик упал в 3 раза), 1-2р., выручайте.
  

Баллада о солдате (Григорий Чухрай) [1959, СССР, драма, мелодрама, военный, BDRip от AVP Studio] pb.wtf

Баллада о солдате через торрент pb.wtf

Размер: 745 MB | Добавлен: 2 года назад | Торрент скачан:23 раза
Скачать  

25-10-2017 12:21 Баллада о солдате Скачать торрент  

Баллада о солдате
Страна: СССР
Производство: Мосфильм

Жанр: драма, мелодрама, военный
Год выпуска: 1959
Продолжительность: 01:27:56

Перевод: Не требуется
Cубтитры: нет
Оригинальная аудиодорожка: русский

Режиссер: Григорий Чухрай

В ролях:
Владимир Ивашов, Жанна Прохоренко, Антонина Максимова, Николай Крючков, Евгений Урбанский...
Об актёрах подробней

Описание:
Великая Отечественная война. Молодой 19-летний солдат Алеша Скворцов (Владимир Ивашов) совершает подвиг. Случайно попавшееся ему на глаза противотанковое ружье не только спасает ему жизнь, но и дает возможность подбить несколько машин противника. Бойца вызывают в командный блиндаж и обещают ему орден, но вчерашний школьник, мальчишка со светлым лицом и детским взглядом отказывается от почетной награды и просит взамен отпустить его в отпуск - повидаться с матерью. И теперь перед Алешей лежит дорога на родину, в свое село. Несколько дней без войны. Несколько дней на пути к дому. Он так и останется навеки 19-летним. Героем, отказавшимся от ордена ради того, чтобы в последний раз обнять маму.

Источник: BDRemux 1080p
Качество видео: BDRip
Формат видео: AVI

Видео: 640x480 (4:3), 23,976 fps, XviD ~ 1047 kbps avg, 0.142 bit/pixel
Аудио: 48 kHz, MP3 2.0, 128 kbps

Раздача от:
Общее
Полное имя : Ballada.o.soldate.1959.BDRip-745_[New-team]_by_AVP_Studio.avi
Формат : AVI
Формат/Информация : Audio Video Interleave
Размер файла : 745 Мбайт
Продолжительность : 1 ч. 27 м.
Общий поток : 1185 Кбит/сек
Программа кодирования : VirtualDubMod 1.5.10.3 | www.virtualdub-fr.org || (build 2550/release)
Библиотека кодирования : VirtualDubMod build 2550/release

Видео
Идентификатор : 0
Формат : MPEG-4 Visual
Профиль формата : Advanced Simple@L5
Параметр BVOP формата : 1
Параметр QPel формата : Нет
Параметр GMC формата : Без точки перехода
Параметр матрицы формата : Выборочная
Идентификатор кодека : XVID
Идентификатор кодека/Подсказка : XviD
Продолжительность : 1 ч. 27 м.
Битрейт : 1047 Кбит/сек
Ширина : 640 пикселей
Высота : 480 пикселей
Соотношение сторон : 4:3
Частота кадров : 23,976 (24000/1001) кадра/сек
Цветовое пространство : YUV
Субдискретизация насыщенности : 4:2:0
Битовая глубина : 8 бит
Тип развёртки : Прогрессивная
Метод сжатия : С потерями
Бит/(Пиксели*Кадры) : 0.142
Размер потока : 659 Мбайт (88%)
Библиотека кодирования : XviD 73

Аудио
Идентификатор : 1
Формат : MPEG Audio
Версия формата : Version 1
Профиль формата : Layer 3
Идентификатор кодека : 55
Идентификатор кодека/Подсказка : MP3
Продолжительность : 1 ч. 27 м.
Вид битрейта : Постоянный
Битрейт : 128 Кбит/сек
Каналы : 2 канала
Частота : 48,0 КГц
Метод сжатия : С потерями
Размер потока : 80,5 Мбайт (11%)
Выравнивание : Соединение по промежуткам
Продолжительность промежутка : 42 мс. (1,00 видеокадр)
Время предзагрузки промежутка : 504 мс.
Библиотека кодирования : LAME3.99r
Настройки программы : -m s -V 4 -q 2 -lowpass 17 -b 128
pb.wtf



Скачать Баллада о солдате через торрент http://s019.radikal.ru/i613/1710/2e/097880f8a70e.png Скачать фильм Баллада о солдате через торрент бесплантно в хорошем качестве Описание:Великая Отечественная война. Молодой 19-летний солдат Алеша Скворцов (Владимир Ивашов) совершает подвиг. Случайно попавшееся ему ... 10 10 1
Info! Золотая раздача, скачанное не засчитывается.
Торрент: Зарегистрирован [2017-10-25 12:21] · скачан: 23 раз
Статус: √ проверено
Размер: 745 MB
Как cкачать? Как скачать Баллада о солдате через торрент | qTorrent

% Раздел Тема Автор DL S | L
Кино СССР [ 2.18 GB ] Баллада о солдате [1959 СССР военный BDRip-AVC от AVP Studio] AVP Studio Скачать
1 | 0
Кино СССР [ 2.91 GB ] Баллада о солдате [1959 СССР военный BDRip 720p от AVP Studio] AVP Studio Скачать
1 | 0
Кино СССР [ 1.46 GB ] Баллада о солдате [1959 СССР военный BDRip от AVP Studio] AVP Studio Скачать
1 | 0


>> Регистрируемся здесь <<






Отзывы и комментарии о схеме читаем и пишем здесь: ---> Отзывы и комментарии о схеме

Новые благодарочки в телеграм довольных пользователей:
скриншот   скриншот   скриншот   скриншот   скриншот
    Дорогой пользователь! Огромная просьба, поблагодарите релизера, оцените раздачу и оставьте свои комментарий, если Вы скачали Баллада о солдате через торрент бесплатно! Внесите свою лепту в развитие PiratBit!
    Комментировать посты могут только пользователи прошедшие не сложную регистрацию
    Показать сообщения:    

    Баллада о солдате через торрент
    Скачать бесплатно Баллада о солдате
    Баллада о солдате скачать торрент
    Баллада о солдате смотреть онлайн
    Cкачать фильм Баллада о солдате бесплатно
    Баллада о солдате скачать торрент в хорошем качестве
    Баллада о солдате смотреть онлайн бесплатно в хорошем качестве


    Вы не можете начинать темы
    Вы не можете отвечать на сообщения
    Вы не можете редактировать свои сообщения
    Вы не можете удалять свои сообщения
    Вы не можете голосовать в опросах
    Вы не можете прикреплять файлы к сообщениям
    Вы можете скачивать файлы