Ссылка на приватное зеркало всего за 1$. Внимание количество ограничено!!!

iTunes

iTunes

iTunes

1

iTunes

iTunes

iTunes

iTunes

iTunes

30
pack

$ от Little Big

ВАЖНО

!!Акция!!

Alien_RageХит недели

RePack

Resident Evil 21

ИГРА 18+

pack

RePack

jed

!!Акция!!

Alien_Rage

RePack

fifa19

RePack

Assassins Creed: Odyssey

RePack

NEED FOR SPEED™ PAYBACK

4 сезон

9 сезон

Бесстыжие 9 сезон

Все сериалы

все сериалы на PB.wtf

RePack

FAR CRY 5
  

Законопослушный гражданин / Law Abiding Citizen (Ф. Гэри Грей ) [2009, триллер, драма, криминал, WEB-DL 1080p] Дубляж [Theatrical Cut | Open Matte] pb.wtf

Законопослушный гражданин через торрент pb.wtf

Размер: 8.76 GB | Добавлен: 2 года 8 мес. назад | Торрент скачан:318 раз
Скачать  

25-10-2017 15:46 Законопослушный гражданин Скачать торрент  

Законопослушный гражданин / Law Abiding Citizen«Как остановить убийцу, если он уже за решеткой?»
Год выпуска: 2009
Страна: США
Жанр: триллер, драма, криминал
Продолжительность: 01:48:55
Перевод: Профессиональный (дублированный), Профессиональный (многоголосый, закадровый)
Субтитры: русские, английские (SDH, Amazon)
Режиссер: Ф. Гэри Грей
В ролях:

Джейми Фокс (Nick Rice), Джерард Батлер (Clyde Shelton), Колм Мини (Detective Dunnigan), Брюс МакГилл (Jonas Cantrell), Лесли Бибб (Sarah Lowell), Майкл Ирби (Detective Garza), Грегори Итцин (Warden Iger), Реджина Холл (Kelly Rice), Эмиральд Янг (Denise Rice), Кристиан Столте (Clarence Darby), Энни Корли (Judge Laura Burch), Ричард Портноу (Bill Reynolds)
Описание:
Окружной прокурор пошёл на сделку с преступниками и освободил их из тюрьмы. Тогда человек, чья жена и ребёнок погибли от рук убийц решает отомстить прокурору, совершив правосудие самостоятельно. Его ловят и сажают в тюрьму, но он неожиданно ставит ультиматум: он будет убивать, не выходя из-за решетки, если его требования не будут выполнены. Смешное заявление, но вскоре люди правда начинают гибнуть...
Рейтинг:

rating
MPAA: R - Лицам до 17 лет обязательно присутствие взрослого
Качество: WEB-DL 1080p | Open Matte |
Формат: MKV
Видео: AVC, 1920x1080 (16:9), 9811 kbps, 23,976 fps, 0,197 bpp
Аудио №1: русский / AC3 / 5.1 / 48 kHz / 448 kbps / | Дубляж |
Аудио №2: украинский / AC3 / 5.1 / 48 kHz / 384 kbps / | Многоголосый закадровый |
Аудио №3: английский / AC3 / 5.1 / 48 kHz / 640 kbps / | Оригинал |
► Исходник видео - WEB-DL Amazon.
► Open Matte версия фильма имеет большее наполнение кадра, по сравнению с Blu-ray.
General
Unique ID : 203798615432045499917785353661836324061 (0x99522F840A4A50C286BD325EACE26CDD)
Complete name : D:\Law.Abiding.Citizen.2009.Theatrical.Cut.Open.Matte.1080p.WEB-DL.Rus.Ukr.Eng.mkv
Format : Matroska
Format version : Version 4 / Version 2
File size : 8.76 GiB
Duration : 1 h 48 min
Overall bit rate mode : Variable
Overall bit rate : 11.5 Mb/s
Movie name : Law.Abiding.Citizen.2009.Theatrical.Cut.Open.Matte.1080p.WEB-DL.Rus.Ukr.Eng-spartanec163
Encoded date : UTC 2017-10-24 17:51:58
Writing application : mkvmerge v8.3.0 ('Over the Horizon') 64bit
Writing library : libebml v1.3.1 + libmatroska v1.4.2

Video
ID : 1
Format : AVC
Format/Info : Advanced Video Codec
Format profile : High@L4
Format settings, CABAC : Yes
Format settings, ReFrames : 4 frames
Codec ID : V_MPEG4/ISO/AVC
Duration : 1 h 48 min
Bit rate mode : Variable
Bit rate : 9 811 kb/s
Maximum bit rate : 15.0 Mb/s
Width : 1 920 pixels
Height : 1 080 pixels
Display aspect ratio : 16:9
Frame rate mode : Constant
Frame rate : 23.976 (24000/1001) FPS
Color space : YUV
Chroma subsampling : 4:2:0
Bit depth : 8 bits
Scan type : Progressive
Bits/(Pixel*Frame) : 0.197
Stream size : 7.47 GiB (85%)
Title : WEB-DL 1080p (Amazon)
Language : English
Default : Yes
Forced : No
Color range : Limited
Color primaries : BT.709
Transfer characteristics : BT.709
Matrix coefficients : BT.709

Audio #1
ID : 2
Format : AC-3
Format/Info : Audio Coding 3
Mode extension : CM (complete main)
Format settings, Endianness : Big
Codec ID : A_AC3
Duration : 1 h 48 min
Bit rate mode : Constant
Bit rate : 448 kb/s
Channel(s) : 6 channels
Channel positions : Front: L C R, Side: L R, LFE
Sampling rate : 48.0 kHz
Frame rate : 31.250 FPS (1536 spf)
Compression mode : Lossy
Stream size : 349 MiB (4%)
Title : AC3 5.1 448Kbps (Дубляж - R5)
Language : Russian
Default : Yes
Forced : No

Audio #2
ID : 3
Format : AC-3
Format/Info : Audio Coding 3
Mode extension : CM (complete main)
Format settings, Endianness : Big
Codec ID : A_AC3
Duration : 1 h 48 min
Bit rate mode : Constant
Bit rate : 384 kb/s
Channel(s) : 6 channels
Channel positions : Front: L C R, Side: L R, LFE
Sampling rate : 48.0 kHz
Frame rate : 31.250 FPS (1536 spf)
Compression mode : Lossy
Stream size : 299 MiB (3%)
Title : AC3 5.1 384Kbps (Профессиональный, многоголосый - R5)
Language : Ukrainian
Default : No
Forced : No

Audio #3
ID : 4
Format : E-AC-3
Format/Info : Audio Coding 3
Format settings, Endianness : Big
Codec ID : A_EAC3
Duration : 1 h 48 min
Bit rate mode : Constant
Bit rate : 640 kb/s
Channel(s) : 6 channels
Channel positions : Front: L C R, Side: L R, LFE
Sampling rate : 48.0 kHz
Frame rate : 187.500 FPS (256 spf)
Compression mode : Lossy
Stream size : 499 MiB (6%)
Title : E-AC3 5.1 640Kbps (Оригинал - Amazon)
Language : English
Default : No
Forced : No

Text #1
ID : 5
Format : UTF-8
Codec ID : S_TEXT/UTF8
Codec ID/Info : UTF-8 Plain Text
Language : Russian
Default : No
Forced : No

Text #2
ID : 6
Format : UTF-8
Codec ID : S_TEXT/UTF8
Codec ID/Info : UTF-8 Plain Text
Language : English
Default : No
Forced : No

Text #3
ID : 7
Format : UTF-8
Codec ID : S_TEXT/UTF8
Codec ID/Info : UTF-8 Plain Text
Title : SDH, Amazon
Language : English
Default : No
Forced : No


Скриншоты pb.wtf



Скачать Законопослушный гражданин через торрент http://i92.fastpic.ru/big/2017/1025/5b/540f6afce669b1bdc38a839d78c24a5b.png Скачать фильм Законопослушный гражданин через торрент бесплантно в хорошем качестве Описание: Окружной прокурор пошёл на сделку с преступниками и освободил их из тюрьмы. Тогда человек, чья жена и ребёнок погибли от рук ... 9.9 10 13
Info! Золотая раздача, скачанное не засчитывается.
Торрент: Зарегистрирован [2017-10-25 15:46] · скачан: 318 раз
Статус: √ проверено
Размер: 8.76 GB
Как cкачать? Как скачать Законопослушный гражданин через торрент | qTorrent

% Раздел Тема Автор DL S | L
Фильмы [HD 720p, 1080p] (Хороший звук DUB, MVO) [ 7.46 GB ] Законопослушный гражданин / Law Abiding Citizen [2009 BDRip-HEVC 1080p ] [Unrated Cut] DUB [] bober100 Скачать
1 | 0
Ultra HD (UHD: 2K, 4K, 8K) — видео сверхвысокой чёткости [ 55.45 GB ] Законопослушный гражданин / Law Abiding Citizen [2009 UHD BDRemux 2160p] [Dolby Vision TV] DUB [] bober100 Скачать
1 | 0
Фильмы [HD 720p, 1080p] (Хороший звук DUB, MVO) [ 16.86 GB ] Законопослушный гражданин / Law Abiding Citizen [2009 BDRip 1080p by msltel] DUB MVO 4 x AVO | Режиссёрская версия msltel Скачать
1 | 0
Фильмы [HD 720p, 1080p] (Хороший звук DUB, MVO) [ 5.7 GB ] Законопослушный гражданин / Law Abiding Citizen [2009 BDRip 720p by msltel] DUB MVO 4 x AVO | Режиссёрская версия msltel Скачать
1 | 1
Ultra HD (UHD: 2K, 4K, 8K) — видео сверхвысокой чёткости [ 73.51 GB ] Законопослушный гражданин / Law Abiding Citizen [2009 UHD Blu-ray 2160p] DUB [HDR + Dolby Vision] sheker187 Скачать
1 | 0
Ultra HD (UHD: 2K, 4K, 8K) — видео сверхвысокой чёткости [ 54.22 GB ] Законопослушный гражданин / Law Abiding Citizen [2009 UHD BDRemux 2160p] MVO +DUB [] bober100 Скачать
1 | 0
Фильмы 2009 [ 2.18 GB ] Законопослушный гражданин / Law Abiding Citizen [2009 BDRip-AVC] DUB bober100 Скачать
1 | 1

28-11-2019 20:33  

Отключить всю рекламу на сайте

26-10-2017 12:49 Законопослушный гражданин Скачать торрент  

шикардос! фильм - зачот!pb.wtf



26-10-2017 13:31 Законопослушный гражданин Скачать торрент  

Шикарно, фильм классный, да ещё и в Open Matte!)))pb.wtf



    Дорогой пользователь! Огромная просьба, поблагодарите релизера, оцените раздачу и оставьте свои комментарий, если Вы скачали Законопослушный гражданин через торрент бесплатно! Внесите свою лепту в развитие PiratBit!
    Комментировать посты могут только пользователи прошедшие не сложную регистрацию
    Показать сообщения:    

    Законопослушный гражданин через торрент
    Скачать бесплатно Законопослушный гражданин
    Законопослушный гражданин скачать торрент
    Законопослушный гражданин смотреть онлайн
    Cкачать фильм Законопослушный гражданин бесплатно
    Законопослушный гражданин скачать торрент в хорошем качестве
    Законопослушный гражданин смотреть онлайн бесплатно в хорошем качестве


    Вы не можете начинать темы
    Вы не можете отвечать на сообщения
    Вы не можете редактировать свои сообщения
    Вы не можете удалять свои сообщения
    Вы не можете голосовать в опросах
    Вы не можете прикреплять файлы к сообщениям
    Вы можете скачивать файлы