Ссылка на приватное зеркало всего за 1$. Внимание количество ограничено!!!

iTunes

iTunes

iTunes

1

iTunes

iTunes

iTunes

iTunes

iTunes

30
pack

Новость дня

ВАЖНО

!!Акция!!

Alien_RageХит недели

RePack

Resident Evil 21

ИГРА 18+

pack

RePack

jed

!!Акция!!

Alien_Rage

RePack

fifa19

RePack

Assassins Creed: Odyssey

RePack

NEED FOR SPEED™ PAYBACK

4 сезон

9 сезон

Бесстыжие 9 сезон

Все сериалы

все сериалы на PB.wtf

RePack

FAR CRY 5
  

Юлий Цезарь, завоеватель Галлии / Giulio Cesare il conquistatore delle Gallie (Танио Боччиа) [1962 г., Драма, приключения, военный, биография, история, DVDRip-AVC, Профессиональный (многоголосый)] от ExKinoRay pb.wtf

Юлий Цезарь, завоеватель Галлии через торрент pb.wtf

Размер: 2.04 GB | Добавлен: 2 года 5 мес. назад | Торрент скачан:18 раз
Скачать  

25-10-2017 17:21 Юлий Цезарь, завоеватель Галлии Скачать торрент  

Юлий Цезарь завоеватель Галлии / Giulio Cesare il conquistatore delle Gallie
Год выпуска: 1962
Страна: Италия
Жанр: Драма, приключения, военный, биография, история
Продолжительность: 01:31:24
Перевод: Профессиональный (многоголосый)

Режиссер: Танио Боччиа

Премьера в мире: 27 сентября 1962

rating

В ролях: Кэмерон Митчелл, Рик Батталья, Доминик Вилмс, Раффаэлла Карра, Карло Тамберлани, Чезаре Фантони, Джулио Доннини, Нерио Бернарди, Карла Кало

Описание: 54-й год до н. э. Гай Юлий Цезарь готовит военную компанию для завоевания Британии. Наряду с внешними врагами полководцу приходится бороться с противником его плановв сенате — великим оратором Марком Туллием Цицероном. Тем временем в занятой римлянами Галлии поднимает восстание Верцингиторигс. Нападая на римские лагеря, отряды галлов ведут борьбу за освобождение. Цезарь решает подавить восстание, но у него не хватает войск для проведения полноценной военной компании. Собрав 50-тысячную армию, Юлий вступает в неравную схватку с армией галлов у стен крепости Алезия. Превосходящие по численности войска галлов не выдерживают многодневной осады и натиска легионов Цезаря. Чтобы спасти свой народ от дальнейших мучений войны, Верцингиторигс вынужден сдаться и бросить свой меч к ногам Юлия, признав Влacть Рима. После этой битвы Цезарь сказал: «Я бился и победил, но я не смог завоевать человеческий дух, который также непобедим, как эти облака...»

Доп. информация: Профессиональный многоголосый (на французскую дорожку)

Качество: DVDRip-AVC
Формат: MKV
Видео кодек: MPEG4
Аудио кодек: AC3
Видео: MPEG-4 AVC, 3000 Кбит/с, 702x428@998x428, 25 кадров/сек
Аудио#1: Русский (AC3, 2 ch, 192 Кбит/с, 48 КГц)
Релиз от:




raw [info]: 702x428p 64:45 @ 25/1 fps (cfr)
x264 [info]: using SAR=64/45
x264 [info]: using cpu capabilities: MMX2 SSE2Fast LZCNT
x264 [info]: profile High, level 4.1
x264 [info]: frame I:786 Avg QP:17.32 size: 61733
x264 [info]: frame P:30747 Avg QP:19.83 size: 28641
x264 [info]: frame B:105567 Avg QP:21.85 size: 10681
x264 [info]: consecutive B-frames: 2.3% 2.0% 5.5% 36.1% 16.6% 14.1% 14.8% 6.1% 2.1% 0.2% 0.0% 0.0% 0.0% 0.0% 0.0% 0.0% 0.0%
-----
Общее
Уникальный идентификатор : 248575847073834461041749279202365956857 (0xBB01F77BD1E61F14922A161315C062F9)
Полное имя : D:\Relizes\Giulio.Cesare.1962.DVDRip-AVC.ExKinoRay.mkv
Формат : Matroska
Версия формата : Version 2
Размер файла : 2,04 Гбайт
Продолжительность : 1 ч. 31 м.
Общий поток : 3194 Кбит/сек
Дата кодирования : UTC 2017-10-25 14:22:15
Программа кодирования : mkvmerge v7.8.0 ('River Man') 32bit built on Apr 3 2015 12:11:22
Библиотека кодирования : libebml v1.3.1 + libmatroska v1.4.2

Видео
Идентификатор : 1
Формат : AVC
Формат/Информация : Advanced Video Codec
Профиль формата : High@L4.1
Параметр CABAC формата : Да
Параметр ReFrames формата : 14 кадров
Идентификатор кодека : V_MPEG4/ISO/AVC
Продолжительность : 1 ч. 31 м.
Битрейт : 3000 Кбит/сек
Ширина : 702 пикселя
Высота : 428 пикселей
Соотношение сторон : 2,35:1
Соотношение сторон в оригинале : 2,35:1
Режим частоты кадров : Постоянный
Частота кадров : 25,000 кадров/сек
Цветовое пространство : YUV
Субдискретизация насыщенности : 4:2:0
Битовая глубина : 8 бит
Тип развёртки : Прогрессивная
Бит/(Пиксели*Кадры) : 0.399
Размер потока : 1,88 Гбайт (92%)
Библиотека кодирования : x264 core 148 r2638 7599210
Настройки программы : cabac=1 / ref=14 / deblock=1:-2:-2 / analyse=0x3:0x133 / me=umh / subme=10 / psy=1 / psy_rd=1.05:0.15 / mixed_ref=1 / me_range=32 / chroma_me=1 / trellis=2 / 8x8dct=1 / cqm=0 / deadzone=21,11 / fast_pskip=0 / chroma_qp_offset=-3 / threads=4 / lookahead_threads=1 / sliced_threads=0 / nr=0 / decimate=0 / interlaced=0 / bluray_compat=0 / constrained_intra=0 / bframes=16 / b_pyramid=2 / b_adapt=2 / b_bias=0 / direct=3 / weightb=1 / open_gop=0 / weightp=2 / keyint=250 / keyint_min=25 / scenecut=40 / intra_refresh=0 / rc=2pass / mbtree=0 / bitrate=3000 / ratetol=1.0 / qcomp=0.60 / qpmin=0 / qpmax=69 / qpstep=4 / cplxblur=20.0 / qblur=0.5 / ip_ratio=1.40 / pb_ratio=1.30 / aq=1:1.00
Язык : English
Default : Да
Forced : Нет
Цветовой диапазон : Limited
Основные цвета : BT.601 NTSC
Характеристики трансфера : BT.601
Коэффициенты матрицы : BT.601

Аудио
Идентификатор : 2
Формат : AC-3
Формат/Информация : Audio Coding 3
Расширение режима : CM (complete main)
Параметр Endianness формата : Big
Идентификатор кодека : A_AC3
Продолжительность : 1 ч. 31 м.
Вид битрейта : Постоянный
Битрейт : 192 Кбит/сек
Каналы : 2 канала
Расположение каналов : Front: L R
Частота : 48,0 КГц
Частота кадров : 31,250 кадров/сек (1536 spf)
Метод сжатия : С потерями
Размер потока : 126 Мбайт (6%)
Default : Да
Forced : Нет

pb.wtf



Скачать Юлий Цезарь, завоеватель Галлии через торрент http://s014.radikal.ru/i326/1710/72/44eef13d0edd.jpg Скачать фильм Юлий Цезарь, завоеватель Галлии через торрент бесплантно в хорошем качестве Описание: 54-й год до н. э. Гай Юлий Цезарь готовит военную компанию для завоевания Британии. Наряду с внешними врагами полководцу ... 10 10 2
Info! Золотая раздача, скачанное не засчитывается.
Торрент: Зарегистрирован [2017-10-25 17:21] · скачан: 18 раз
Статус: √ проверено
Размер: 2.04 GB
Как cкачать? Как скачать Юлий Цезарь, завоеватель Галлии через торрент | qTorrent

28-11-2019 20:33  

Отключить всю рекламу на сайте

25-10-2017 17:29 Юлий Цезарь, завоеватель Галлии Скачать торрент  

Топик был перенесен из форума Оформление раздач (Кино, Видео и ТВ) в форум Классика зарубежного кино


bober100pb.wtf



    Дорогой пользователь! Огромная просьба, поблагодарите релизера, оцените раздачу и оставьте свои комментарий, если Вы скачали Юлий Цезарь, завоеватель Галлии через торрент бесплатно! Внесите свою лепту в развитие PiratBit!
    Комментировать посты могут только пользователи прошедшие не сложную регистрацию
    Показать сообщения:    

    Юлий Цезарь, завоеватель Галлии через торрент
    Скачать бесплатно Юлий Цезарь, завоеватель Галлии
    Юлий Цезарь, завоеватель Галлии скачать торрент
    Юлий Цезарь, завоеватель Галлии смотреть онлайн
    Cкачать фильм Юлий Цезарь, завоеватель Галлии бесплатно
    Юлий Цезарь, завоеватель Галлии скачать торрент в хорошем качестве
    Юлий Цезарь, завоеватель Галлии смотреть онлайн бесплатно в хорошем качестве


    Вы не можете начинать темы
    Вы не можете отвечать на сообщения
    Вы не можете редактировать свои сообщения
    Вы не можете удалять свои сообщения
    Вы не можете голосовать в опросах
    Вы не можете прикреплять файлы к сообщениям
    Вы можете скачивать файлы