Ссылка на приватное зеркало всего за 1$. Внимание количество ограничено!!!

iTunes

iTunes

iTunes

1

iTunes

iTunes

iTunes

iTunes

iTunes

30
pack

$ от Little Big

ВАЖНО

!!Акция!!

Alien_RageХит недели

RePack

Resident Evil 21

ИГРА 18+

pack

RePack

jed

!!Акция!!

Alien_Rage

RePack

fifa19

RePack

Assassins Creed: Odyssey

RePack

NEED FOR SPEED™ PAYBACK

4 сезон

9 сезон

Бесстыжие 9 сезон

Все сериалы

все сериалы на PB.wtf

RePack

FAR CRY 5
  

1922 / 1922 (Зак Хилдитч / Zak Hilditch) [2017, ужасы, триллер, драма, криминал, WEB-DL 720p] [MVO] (AlexFilm) pb.wtf

1922 через торрент pb.wtf

Размер: 1.95 GB | Добавлен: 2 года 8 мес. назад | Торрент скачан:259 раз
Скачать  

25-10-2017 20:50 1922 Скачать торрент  

1922 / 1922 Год выпуска: 2017
Страна: США
Жанр: ужасы, триллер, драма, криминал
Продолжительность: 01:42:41
Озвучание: Профессиональное (многоголосое, закадровое) (AlexFilm)
Субтитры: English, German, Spanish, French, Dutch

Режиссёр: Зак Хилдитч / Zak Hilditch

В ролях: Томас Джейн, Молли Паркер, Дилан Шмид, Kaitlyn Bernard, Нил МакДонаф, Таня Шампу, Брайан Д’Арси Джеймс, Боб Фрейзер, Эрик Кинлисайд, Патрик Китинг

Описание: Эта история о Уилфреде Джеймсе, добропорядочном фермере и любящем отце, что из года в год усердным трудом взращивает на своей земле урожай. Он планировал сделать её наследием своего сына и его потомков, однако у жены Уилфреда другие планы. Она хочет продать землю и уехать в город. Честный фермер пойдет на многое, чтобы сохранить свой дом. Даже на убийство собственной жены.

Релиз:

Перевод: Виктория Востокова
Монтаж и сведение звука: Михаил Суслов
Озвучание:
Екатерина Муравицкая
Кирилл Патрино
Константин Федосеев
Михаил Суслов



Качество: WEB-DL 720p
Формат: MKV
Видео: 1280x720, 24 fps, MPEG-4 AVC ~3000 kbps avg, 0.089 bit/pixel
Аудио Rus: 48 kHz, AC3 Dolby Digital, 3/2 (L,C,R,l,r) + LFE ch, ~384.00 kbps
Аудио Eng: 48 kHz, AC3 Dolby Digital, 3/2 (L,C,R,l,r) + LFE ch, ~384.00 kbps
скриншот  скриншот  скриншот  
Формат : Matroska
Версия формата : Version 4 / Version 2
Размер файла : 1,95 Гбайт
Продолжительность : 1 ч. 42 м.
Режим общего битрейта : Переменный
Общий поток : 2717 Кбит/сек
Название фильма : 1922 (2017) @ AlexFilm
Дата кодирования : UTC 2017-10-25 18:45:32
Программа кодирования : mkvmerge v7.1.0 ('Good Love') 64bit built on Jul 27 2014 13:06:55
Библиотека кодирования : libebml v1.3.0 + libmatroska v1.4.1

Видео
Идентификатор : 1
Формат : AVC
Формат/Информация : Advanced Video Codec
Профиль формата : Main@L3.1
Параметр CABAC формата : Да
Параметр ReFrames формата : 3 кадра
Идентификатор кодека : V_MPEG4/ISO/AVC
Продолжительность : 1 ч. 42 м.
Вид битрейта : Переменный
Битрейт : 1960 Кбит/сек
Максимальный битрейт : 2940 Кбит/сек
Ширина : 1280 пикселей
Высота : 720 пикселей
Соотношение сторон : 16:9
Режим частоты кадров : Постоянный
Частота кадров : 24,000 кадра/сек
Цветовое пространство : YUV
Субдискретизация насыщенности : 4:2:0
Битовая глубина : 8 бит
Тип развёртки : Прогрессивная
Бит/(Пиксели*Кадры) : 0.089
Размер потока : 1,36 Гбайт (70%)
Библиотека кодирования : x264 core 148
Настройки программы : cabac=1 / ref=3 / deblock=1:0:0 / analyse=0x1:0x111 / me=umh / subme=10 / psy=1 / psy_rd=1.00:0.00 / mixed_ref=1 / me_range=24 / chroma_me=1 / trellis=2 / 8x8dct=0 / cqm=0 / deadzone=21,11 / fast_pskip=1 / chroma_qp_offset=-2 / threads=8 / lookahead_threads=1 / sliced_threads=0 / nr=0 / decimate=1 / interlaced=0 / bluray_compat=0 / stitchable=1 / constrained_intra=0 / bframes=2 / b_pyramid=0 / b_adapt=2 / b_bias=0 / direct=3 / weightb=1 / open_gop=0 / weightp=2 / keyint=48 / keyint_min=25 / scenecut=0 / intra_refresh=0 / rc_lookahead=48 / rc=2pass / mbtree=1 / bitrate=1960 / ratetol=1.0 / qcomp=0.50 / qpmin=6 / qpmax=51 / qpstep=4 / cplxblur=20.0 / qblur=0.5 / vbv_maxrate=2940 / vbv_bufsize=3920 / nal_hrd=vbr / filler=0 / ip_ratio=1.40 / aq=1:1.00
Default : Да
Forced : Нет
Statistics Tags Issue : mkvmerge v16.0.0 ('Protest') 64-bit 2017-10-20 07:02:12 / mkvmerge v7.1.0 ('Good Love') 64bit built on Jul 27 2014 13:06:55 2017-10-25 18:45:32
FromStats_BitRate : 1946724
FromStats_Duration : 01:42:34.375000000
FromStats_FrameCount : 147705
FromStats_StreamSize : 1497609115

Аудио #1
Идентификатор : 2
Формат : AC-3
Формат/Информация : Audio Coding 3
Расширение режима : CM (complete main)
Параметр Endianness формата : Big
Идентификатор кодека : A_AC3
Продолжительность : 1 ч. 42 м.
Вид битрейта : Постоянный
Битрейт : 384 Кбит/сек
Каналы : 6 каналов
Расположение каналов : Front: L C R, Side: L R, LFE
Частота : 48,0 КГц
Частота кадров : 31,250 кадров/сек (1536 spf)
Метод сжатия : С потерями
Размер потока : 282 Мбайт (14%)
Заголовок : DD5.1 AlexFilm
Язык : Russian
Default : Да
Forced : Нет

Аудио #2
Идентификатор : 3
Формат : AC-3
Формат/Информация : Audio Coding 3
Расширение режима : CM (complete main)
Параметр Endianness формата : Big
Идентификатор кодека : A_AC3
Продолжительность : 1 ч. 42 м.
Вид битрейта : Постоянный
Битрейт : 384 Кбит/сек
Каналы : 6 каналов
Расположение каналов : Front: L C R, Side: L R, LFE
Частота : 48,0 КГц
Частота кадров : 31,250 кадров/сек (1536 spf)
Метод сжатия : С потерями
Размер потока : 282 Мбайт (14%)
Заголовок : DD5.1 Original
Язык : English
Default : Нет
Forced : Нет
Statistics Tags Issue : mkvmerge v16.0.0 ('Protest') 64-bit 2017-10-20 07:02:12 / mkvmerge v7.1.0 ('Good Love') 64bit built on Jul 27 2014 13:06:55 2017-10-25 18:45:32
FromStats_BitRate : 384000
FromStats_Duration : 01:42:34.784000000
FromStats_FrameCount : 192337
FromStats_StreamSize : 295429632

Текст #1
Идентификатор : 4
Формат : UTF-8
Идентификатор кодека : S_TEXT/UTF8
Идентификатор кодека/Информация : UTF-8 Plain Text
Заголовок : SDH
Язык : English
Default : Нет
Forced : Нет
Statistics Tags Issue : mkvmerge v16.0.0 ('Protest') 64-bit 2017-10-20 07:02:12 / mkvmerge v7.1.0 ('Good Love') 64bit built on Jul 27 2014 13:06:55 2017-10-25 18:45:32
FromStats_BitRate : 41
FromStats_Duration : 01:36:57.733000000
FromStats_FrameCount : 1001
FromStats_StreamSize : 30039

Текст #2
Идентификатор : 5
Формат : UTF-8
Идентификатор кодека : S_TEXT/UTF8
Идентификатор кодека/Информация : UTF-8 Plain Text
Язык : German
Default : Нет
Forced : Нет
Statistics Tags Issue : mkvmerge v16.0.0 ('Protest') 64-bit 2017-10-20 07:02:12 / mkvmerge v7.1.0 ('Good Love') 64bit built on Jul 27 2014 13:06:55 2017-10-25 18:45:32
FromStats_BitRate : 40
FromStats_Duration : 01:41:55.709000000
FromStats_FrameCount : 907
FromStats_StreamSize : 30845

Текст #3
Идентификатор : 6
Формат : UTF-8
Идентификатор кодека : S_TEXT/UTF8
Идентификатор кодека/Информация : UTF-8 Plain Text
Язык : Spanish
Default : Нет
Forced : Нет
Statistics Tags Issue : mkvmerge v16.0.0 ('Protest') 64-bit 2017-10-20 07:02:12 / mkvmerge v7.1.0 ('Good Love') 64bit built on Jul 27 2014 13:06:55 2017-10-25 18:45:32
FromStats_BitRate : 37
FromStats_Duration : 01:41:55.709000000
FromStats_FrameCount : 907
FromStats_StreamSize : 28541

Текст #4
Идентификатор : 7
Формат : UTF-8
Идентификатор кодека : S_TEXT/UTF8
Идентификатор кодека/Информация : UTF-8 Plain Text
Язык : French
Default : Нет
Forced : Нет
Statistics Tags Issue : mkvmerge v16.0.0 ('Protest') 64-bit 2017-10-20 07:02:12 / mkvmerge v7.1.0 ('Good Love') 64bit built on Jul 27 2014 13:06:55 2017-10-25 18:45:32
FromStats_BitRate : 36
FromStats_Duration : 01:41:55.709000000
FromStats_FrameCount : 889
FromStats_StreamSize : 27798

Текст #5
Идентификатор : 8
Формат : UTF-8
Идентификатор кодека : S_TEXT/UTF8
Идентификатор кодека/Информация : UTF-8 Plain Text
Язык : Dutch
Default : Нет
Forced : Нет
Statistics Tags Issue : mkvmerge v16.0.0 ('Protest') 64-bit 2017-10-20 07:02:12 / mkvmerge v7.1.0 ('Good Love') 64bit built on Jul 27 2014 13:06:55 2017-10-25 18:45:32
FromStats_BitRate : 33
FromStats_Duration : 01:41:55.709000000
FromStats_FrameCount : 829
FromStats_StreamSize : 25893
pb.wtf



Скачать 1922 через торрент http://alexfilm.cc/data/pictures/4/fdb61f7c44f7fb30f797c0c79fbb7290.png Скачать фильм 1922 через торрент бесплантно в хорошем качестве Описание: Эта история о Уилфреде Джеймсе, добропорядочном фермере и любящем отце, что из года в год усердным трудом взращивает на своей ... 9.6 10 7
Info! Золотая раздача, скачанное не засчитывается.
Торрент: Зарегистрирован [2017-10-25 20:50] · скачан: 259 раз
Статус: √ проверено
Размер: 1.95 GB
Как cкачать? Как скачать 1922 через торрент | qTorrent

% Раздел Тема Автор DL S | L
Аудио- и видео-, CD- проигрыватели и каталогизаторы [ 36 MB ] Daum PotPlayer 1.7.19220 [OpenCodec + WorldTV1000 + IPTV1000 + Radio4500] Portable by PortableAppZ [Multi/Ru/2019] DToretto777 Скачать
1 | 0
Ultra HD (UHD: 2K, 4K, 8K) — видео сверхвысокой чёткости [ 26.94 GB ] 1922 / 1922 [2017 UHD WEBRip 2160p] MVO [AlexFilm] bober100 Скачать
1 | 0
Фильмы (WEB-DL 720p, 1080p) [ 5.78 GB ] 1922 / 1922 [2017 WEB-DL 1080p] MVO [AlexFilm] bober100 Скачать
1 | 0
Фильмы 2017 [DVDrip, WEB-DLRip, HDrip] (DUB, MVO) [ 1.2 GB ] 1922 / 1922 [2017 WEB-DLRip] [MVO] killermax2013 Скачать
1 | 0
Фильмы без перевода [ 27.55 GB ] Носферату симфония ужаса / Nosferatu eine Symphonie des Grauens [1922 BDRemux / Sub] shuller Скачать
1 | 0
Классика зарубежного кино [ 1.46 GB ] Носферату симфония ужаса / Nosferatu eine Symphonie des Grauens [1922 BDRip] Sub Ворон Скачать
1 | 0
Арт-хаус и авторское кино [ 1.44 GB ] Ведьмы / Haxan [1922 История Документальный DVDRip] VO КинозалТВ MicroCharmelle Скачать
1 | 0

28-11-2019 20:33  

Отключить всю рекламу на сайте

25-10-2017 20:57 1922 Скачать торрент  

killermax2013, Во, как раз перевод ждал, спс pb.wtf



25-10-2017 20:59 1922 Скачать торрент  

Ворон писал(а):

killermax2013, Во, как раз перевод ждал, спс

pb.wtf



25-10-2017 21:48 1922 Скачать торрент  

Это случайно не по книге Кинга? Описание точь-в-точь, как в одном из рассказов вышеупомянутого автора...pb.wtf



26-10-2017 03:21 1922 Скачать торрент  

mrgoth, Да по книге.
Ну глянул я, драма, трагедия, нравоучение....7/10.pb.wtf



26-10-2017 06:22 1922 Скачать торрент  

Ворон, Да, я тормоз просто, не додумался пробить название рассказа, который читал когда-то.
Книга хороша, смотреть экранизацию я, конечно же, не буду.
З.Ы. Что-то не помню что-либо, касающееся нравоучение в книге...pb.wtf



    Дорогой пользователь! Огромная просьба, поблагодарите релизера, оцените раздачу и оставьте свои комментарий, если Вы скачали 1922 через торрент бесплатно! Внесите свою лепту в развитие PiratBit!
    Комментировать посты могут только пользователи прошедшие не сложную регистрацию
    Показать сообщения:    

    1922 через торрент
    Скачать бесплатно 1922
    1922 скачать торрент
    1922 смотреть онлайн
    Cкачать фильм 1922 бесплатно
    1922 скачать торрент в хорошем качестве
    1922 смотреть онлайн бесплатно в хорошем качестве


    Вы не можете начинать темы
    Вы не можете отвечать на сообщения
    Вы не можете редактировать свои сообщения
    Вы не можете удалять свои сообщения
    Вы не можете голосовать в опросах
    Вы не можете прикреплять файлы к сообщениям
    Вы можете скачивать файлы