Ссылка на приватное зеркало всего за 1$. Внимание количество ограничено!!!

iTunes

iTunes

iTunes

1

iTunes

iTunes

iTunes

iTunes

iTunes

30
pack

$ от Little Big

ВАЖНО

!!Акция!!

Alien_RageХит недели

RePack

Resident Evil 21

ИГРА 18+

pack

RePack

jed

!!Акция!!

Alien_Rage

RePack

fifa19

RePack

Assassins Creed: Odyssey

RePack

NEED FOR SPEED™ PAYBACK

4 сезон

9 сезон

Бесстыжие 9 сезон

Все сериалы

все сериалы на PB.wtf

RePack

FAR CRY 5
  

Хорошее время / Good Time (Бен Сэфди, Джошуа Сэфди) [2017, триллер, драма, криминал, WEB-DL 720p] MVO [Лицензия / iTunes] pb.wtf

Хорошее время через торрент pb.wtf

Размер: 3.17 GB | Добавлен: 2 года 8 мес. назад | Торрент скачан:361 раз
Скачать  

25-10-2017 21:35 Хорошее время Скачать торрент  

Хорошее время / Good TimeГод выпуска: 2017
Страна: США
Жанр: триллер, драма, криминал
Продолжительность: 01:41:12
Перевод: Профессиональный (многоголосый закадровый) [Лицензия / iTunes]
Субтитры: отсутствуют

Режиссер: Бен Сэфди, Джошуа Сэфди

rating

В ролях:

Роберт Паттинсон, Бен Сэфди, Taliah Webster, Дженнифер Джейсон Ли, Баркхад Абди, Рон Браунштейн, Peter Verby, Саида Мансур, Gladys Mathon, Роуз Грегорио

Описание:

Отчаявшись найти работу и достать деньги на оплату счетов, Конни планирует ограбление банка. Чтобы осуществить налет, ему обязательно необходим напарник, но ему некого взять с собой кроме своего родного брата Ника, страдающего умственными отклонениями. Конни берет Ника с собой, однако попытка ограбления оборачивается провалом. Ник, чуть замешкавшись, попадает в руки полиции, а у Конни в руках оказывается сумка с деньгами, которая взрывается и пачкает его краской с головы до ног. Чувствуя свою вину за брата, а также понимая, как тяжело Ник будет переносить каждый день без помощи близкого человека, Конни решает, во что бы то ни стало, вытащить брата из рук полиции. В течение одной ночи, полной адреналина, Конни предпринимает отчаянные попытки пробраться к Нику и освободить его.

Качество: WEB-DL 720p
Формат: MKV
Видео кодек: H.264
Аудио кодек: AC3

Видео: 1280x536 at 24.000 fps, MPEG-4 AVC, ~4102 kbps avg
Аудио: Russian: 48 kHz, AC3, 3/2 (L,C,R,l,r) + LFE ch, ~384.00 kbps avg
скриншот   скриншот   скриншот   скриншот   скриншот  

Общее
Уникальный идентификатор : 205037490191720809986453501774834754995 (0x9A40C8C1DEC305FD89A0F41BC8D0E5B3)
Полное имя : D:\Good.Time.2017.WEB-DL.720р.Rus.mkv
Формат : Matroska
Версия формата : Version 2
Размер файла : 3,17 Гбайт
Продолжительность : 1 ч. 41 м.
Общий поток : 4488 Кбит/сек
Дата кодирования : UTC 2017-10-25 18:08:23
Программа кодирования : mkvmerge v8.3.0 ('Over the Horizon') 64bit
Библиотека кодирования : libebml v1.3.1 + libmatroska v1.4.2

Видео
Идентификатор : 1
Формат : AVC
Формат/Информация : Advanced Video Codec
Профиль формата : Main@L3.1
Параметр CABAC формата : Нет
Параметр ReFrames формата : 2 кадра
Идентификатор кодека : V_MPEG4/ISO/AVC
Продолжительность : 1 ч. 41 м.
Битрейт : 4102 Кбит/сек
Ширина : 1280 пикселей
Высота : 536 пикселей
Соотношение сторон : 2,40:1
Режим частоты кадров : Постоянный
Частота кадров : 24,000 кадра/сек
Цветовое пространство : YUV
Субдискретизация насыщенности : 4:2:0
Битовая глубина : 8 бит
Тип развёртки : Прогрессивная
Бит/(Пиксели*Кадры) : 0.249
Размер потока : 2,90 Гбайт (91%)
Язык : English
Default : Да
Forced : Нет
Цветовой диапазон : Limited
Основные цвета : BT.709
Характеристики трансфера : BT.709
Коэффициенты матрицы : BT.709

Аудио
Идентификатор : 2
Формат : AC-3
Формат/Информация : Audio Coding 3
Расширение режима : CM (complete main)
Параметр Endianness формата : Big
Идентификатор кодека : A_AC3
Продолжительность : 1 ч. 41 м.
Вид битрейта : Постоянный
Битрейт : 384 Кбит/сек
Каналы : 6 каналов
Расположение каналов : Front: L C R, Side: L R, LFE
Частота : 48,0 КГц
Частота кадров : 31,250 кадров/сек (1536 spf)
Метод сжатия : С потерями
Размер потока : 278 Мбайт (9%)
Язык : Russian
Default : Да
Forced : Нет

Меню
00:00:00.000 : en:Глава 1
00:07:02.541 : en:Глава 2
00:13:48.541 : en:Глава 3
00:19:23.082 : en:Глава 4
00:25:58.248 : en:Глава 5
00:31:35.914 : en:Глава 6
00:37:54.539 : en:Глава 7
00:44:07.414 : en:Глава 8
00:49:51.705 : en:Глава 9
00:55:12.413 : en:Глава 10
01:03:11.496 : en:Глава 11
01:10:52.412 : en:Глава 12
01:18:16.662 : en:Глава 13
01:24:06.995 : en:Глава 14
01:29:59.745 : en:Глава 15

pb.wtf



Скачать Хорошее время через торрент http://img12.lostpic.net/2017/10/03/9190db1248d7f0d668c948415f541c18.png Скачать фильм Хорошее время через торрент бесплантно в хорошем качестве Описание: Отчаявшись найти работу и достать деньги на оплату счетов, Конни планирует ограбление банка. Чтобы осуществить налет, ему ... 9 10 11
Info! Золотая раздача, скачанное не засчитывается.
Торрент: Зарегистрирован [2017-10-25 21:35] · скачан: 361 раз
Статус: √ проверено
Размер: 3.17 GB
Как cкачать? Как скачать Хорошее время через торрент | qTorrent

% Раздел Тема Автор DL S | L
Фильмы 2017 [DVDrip, WEB-DLRip, HDrip] (DUB, MVO) [ 1.58 GB ] Хорошее время / Good Time [2017 WEB-DLRip-AVC] MVO sokol_ok Скачать
3 | 0
Фильмы [HD 720p, 1080p] (Хороший звук DUB, MVO) [ 7.89 GB ] Хорошее время / Good Time [2017 BDRip 1080p] MVO bober100 Скачать
1 | 0
Фильмы (Blu-ray, BD-Remux, HDDVD) [ 18.61 GB ] Хорошее время / Good Time [2017 BD Remux 1080p] MVO bober100 Скачать
1 | 0
Фильмы 2017 [DVDrip, WEB-DLRip, HDrip] (DUB, MVO) [ 745 MB ] Хорошее время / Good Time [2017 WEB-DLRip] MVO bober100 Скачать
1 | 0
Фильмы 2017 [DVDrip, WEB-DLRip, HDrip] (DUB, MVO) [ 1.46 GB ] Хорошее время / Good Time [2017 WEB-DLRip] [MVO] killermax2013 Скачать
1 | 0
Фильмы (WEB-DL 720p, 1080p) [ 3.52 GB ] Хорошее время / Good Time [2017 WEB-DL 1080p] [MVO] killermax2013 Скачать
1 | 0
Гонзо [ 2.49 GB ] Хорошее Время / Good Times [2017 All Sex Anal Oral Gonzo Facial Cream Pie Cumshots Threesomes WEB-DLRip 360p] Split Scenes sheker187 Скачать
1 | 0

28-11-2019 20:33  

Отключить всю рекламу на сайте

    Дорогой пользователь! Огромная просьба, поблагодарите релизера, оцените раздачу и оставьте свои комментарий, если Вы скачали Хорошее время через торрент бесплатно! Внесите свою лепту в развитие PiratBit!
    Комментировать посты могут только пользователи прошедшие не сложную регистрацию
    Показать сообщения:    

    Хорошее время через торрент
    Скачать бесплатно Хорошее время
    Хорошее время скачать торрент
    Хорошее время смотреть онлайн
    Cкачать фильм Хорошее время бесплатно
    Хорошее время скачать торрент в хорошем качестве
    Хорошее время смотреть онлайн бесплатно в хорошем качестве


    Вы не можете начинать темы
    Вы не можете отвечать на сообщения
    Вы не можете редактировать свои сообщения
    Вы не можете удалять свои сообщения
    Вы не можете голосовать в опросах
    Вы не можете прикреплять файлы к сообщениям
    Вы можете скачивать файлы