Доктор Стрэндж

Лицензия

Добыча

MVO

Дом дракона

1 сезон

Тор

Лицензия

Мэверик

Лицензия

Там, где раки поют

MVO

Властелин колец

1 сезон

Ultimate

pack

Рекомендуем

30

Repack

ВАЖНО

ВАЖНО

Ghostwire

RePack

jed

RePack

nioh2

RePack

RDR2

RePack

NEED FOR SPEED™ PAYBACK

RePack

скачать торрент

Кинопоиск HD

Острые козырьки 6 сезон

6 сезон

FAR CRY 6

RePack

скачать торрент

Лицензия

скачать торрент

MVO

1

1 сезон

скачать торрент

1 сезон

скачать торрент

Лицензия

  

Неисправимые / Невиправні / Сезон: 1 / Серии 1-16 из 16 (Анатолий Матешко) [2017 г., Украина, Комедия, драма, детектив, WEBRip]

Неисправимые через торрент pb.wtf

Размер: 9.4 GB | Добавлен: 4 года 10 мес. назад | Торрент скачан:96 раз
Смотреть онлайн | Скачать   

26-10-2017 03:19 Неисправимые Скачать торрент  

Неисправимые / Невиправні
  • Год выпуска: 2017
  • Страна: Украина
  • Жанр: Комедия, драма, детектив
  • Продолжительность: ~ 00:47:00 (Серия)
  • Перевод: Не требуется
  • Режиссер: Анатолий Матешко
  • В ролях:
    Анна Донченко, Даниил Белых, Дмитрий Шевченко



  • Кто может более искусно и умело раскрыть запутанное преступление, чем сам преступник? Кто лучше поймет логику злоумышленника, чем он сам? Социальный и психологический эксперимент – расследовать сложные уголовные дела в новом сериале ICTV возьмутся бывшие заключенные!

  • Качество: WEBRip
  • Формат: : AVI
  • Видео кодек: XviD
  • Аудио кодек: AC-3

  • Видео: 1558 Кбит/сек, 720*400 (16:9), в 25,000 кадров/сек, MPEG-4 Visual (XviD)
  • Аудио: 192 Кбит/сек, 48,0 КГц, 16 бит, 2 канала, AC-3
  • Релиз от: Files-x
    Внимание! Раздача ведётся путём добавления новых серий; при каждом добавлении создаётся новый торрент. Чтобы начать докачку новой серии, пользователям необходимо сделать следующее:
    (1) остановить скачивание,
    (2) удалить старый торрент у себя из клиента (старые серии удалять не надо),
    (3) скачать новый торрент и запустить его у себя в клиенте вместо старого, при этом указать клиенту путь в старую папку куда и должно происходить скачивание новых серий.
    Ваш клиент при этом должен произвести хеширование (проверку) старой папки (если не производит сам - помогите ему сделать это), и будет докачивать только те серии которых у вас ещё нет. Старые серии при этом не удаляются, а продолжают раздаваться!
    Eсли вы уже удалили старые серии, то предотвратить повторную закачку старых серий можно, отжав галочку в соответствующих местах при запуске нового торрента. По возможности, желательно не удалять старые серии как можно дольше чтобы релизёр не столько продолжал раздавать старые серии, а смог сконцентрироваться на новых.
    Общее
    Полное имя : F:\Загрузки\Neispravimyje.2017.WEBRip.Files-x\01.Neispravimyje.2017.WEBRip.Files-x.avi
    Формат : AVI
    Формат/Информация : Audio Video Interleave
    Размер файла : 600 Мбайт
    Продолжительность : 47 м. 40 с.
    Общий поток : 1760 Кбит/сек
    Программа кодирования : VirtualDubMod 1.5.10.3 | www.virtualdub-fr.org || (build 2550/release)
    Библиотека кодирования : VirtualDubMod build 2550/release

    Видео
    Идентификатор : 0
    Формат : MPEG-4 Visual
    Профиль формата : Advanced [email protected]
    Настройки формата : BVOP1 / Custom Matrix
    Параметр BVOP формата : 1
    Параметр QPel формата : Нет
    Параметр GMC формата : Без точки перехода
    Параметр матрицы формата : Выборочная
    Идентификатор кодека : XVID
    Идентификатор кодека/Подсказка : XviD
    Продолжительность : 47 м. 40 с.
    Битрейт : 1558 Кбит/сек
    Ширина : 720 пикселей
    Высота : 400 пикселей
    Соотношение сторон : 16:9
    Частота кадров : 25,000 кадров/сек
    Цветовое пространство : YUV
    Субдискретизация насыщенности : 4:2:0
    Битовая глубина : 8 бит
    Тип развёртки : Прогрессивная
    Метод сжатия : С потерями
    Бит/(Пиксели*Кадры) : 0.216
    Размер потока : 531 Мбайт (89%)
    Библиотека кодирования : XviD 73

    Аудио
    Идентификатор : 1
    Формат : AC-3
    Формат/Информация : Audio Coding 3
    Параметр Endianness формата : Big
    Идентификатор кодека : 2000
    Продолжительность : 47 м. 40 с.
    Вид битрейта : Постоянный
    Битрейт : 192 Кбит/сек
    Каналы : 2 канала
    Расположение каналов : Front: L R
    Частота : 48,0 КГц
    Частота кадров : 31,250 кадров/сек (1536 SPF)
    Битовая глубина : 16 бит
    Метод сжатия : С потерями
    Размер потока : 65,5 Мбайт (11%)
    Выравнивание : Разделение по промежуткам
    Продолжительность промежутка : 40 мс. (1,00 видеокадр)
    Время предзагрузки промежутка : 500 мс.
    ServiceKind/String : Complete Main

    Скриншоты:
    скриншот   скриншот   скриншот   скриншот   скриншот   скриншот   скриншот  
    скриншот  

    Раздача ведётся путём добавления новых серий. Добавлена 16 серия (17.11.2017).Просьба перекачать торрент файл.




  • Скачать Неисправимые через торрент https://pic1.kartinco.top/images/11/bo3g4.jpg Скачать, смотреть онлайн Неисправимые бесплантно в хорошем качестве qw.png Кто может более искусно и умело раскрыть запутанное преступление, чем сам преступник? Кто лучше поймет логику злоумышленника, чем ... 6.8 10 13
    Info! Золотая раздача, скачанное не засчитывается.
    Торрент: Зарегистрирован [2017-11-16 23:09] · скачан: 96 раз
    Статус: √ проверено
    Размер: 9.4 GB
    Как cкачать? Как скачать Неисправимые через торрент | UTorrent

    28-11-2019 20:33  


    Отключить вcю реклaмy на сайте, в т.ч. и в плеере онлайн просмотра!

      Дорогой пользователь! Огромная просьба, поблагодарите релизера, оцените раздачу и оставьте свои комментарий, если Вы скачали Неисправимые через торрент бесплатно!!
      Комментировать посты могут только пользователи прошедшие не сложную регистрацию
      Показать сообщения:    


      Неисправимые через торрент
      Скачать бесплатно Неисправимые
      Неисправимые скачать торрент
      Неисправимые смотреть онлайн
      Cкачать фильм Неисправимые бесплатно
      Неисправимые скачать торрент в хорошем качестве
      Неисправимые смотреть онлайн бесплатно в хорошем качестве
      Вы не можете начинать темы
      Вы не можете отвечать на сообщения
      Вы не можете редактировать свои сообщения
      Вы не можете удалять свои сообщения
      Вы не можете голосовать в опросах
      Вы не можете прикреплять файлы к сообщениям
      Вы можете скачивать файлы